Пресноводный / Freshwater (2016) BDRip 720p | L

 

Создавать темы 03-Июн-2016 15:16

Информация о фильме
Название: Пресноводный
Оригинальное название: Freshwater
Год выхода: 2016
Жанр: триллер
Режиссер: Брэнди Берри
В ролях: Зои Белл, Файсал Аль-Сайя, Юлия К, Кристофер Бивер, Шерри Икин, Том О’Коннелл, Джо Ландо, Элисон Хэйслип, Эми Паффрат, Доннабелль Мортель
О фильме: Новая история про огромного крокодила-убийцу, котрый теперь живится отдыхающими на берегу озера...-
Выпущено: США / Granfalloon Productions
Продолжительность: 01:23:36
Озвучивание: Любительское (многоголосое) [Parovoz Production]
Примечание: Релиз без рекламы.
Файл
Формат: MKV
Качество: BDRip 720p
Видео: MPEG-4 AVC, 4100 kb/s, 1280x720
Аудио: Russian: AC3, 192 kb/s (2 ch) / Engslish: DTS, 1509 kb/s (6 ch)

MI

Format : Matroska
Format version : Version 2
File size : 3.39 GiB
Duration : 1h 23mn
Overall bit rate : 5 802 Kbps
Encoded date : UTC 2016-06-03 12:10:48
Writing application : mkvmerge v7.8.0 ('River Man') 32bit built on Apr 3 2015 12:11:22
Writing library : libebml v1.3.1 + libmatroska v1.4.2
Video
ID : 1
Format : AVC
Format/Info : Advanced Video Codec
Format profile : [email protected]
Format settings, CABAC : Yes
Format settings, ReFrames : 5 frames
Codec ID : V_MPEG4/ISO/AVC
Duration : 1h 23mn
Bit rate : 4 100 Kbps
Width : 1 280 pixels
Height : 720 pixels
Display aspect ratio : 16:9
Frame rate mode : Constant
Frame rate : 23.976 fps
Color space : YUV
Chroma subsampling : 4:2:0
Bit depth : 8 bits
Scan type : Progressive
Bits/(Pixel*Frame) : 0.186
Stream size : 2.33 GiB (69%)
Writing library : x264 core 148 r2692 64f4e24
Encoding settings : cabac=1 / ref=5 / deblock=1:-2:-2 / analyse=0x3:0x113 / me=umh / subme=8 / psy=1 / psy_rd=1.00:0.00 / mixed_ref=1 / me_range=16 / chroma_me=1 / trellis=1 / 8x8dct=1 / cqm=0 / deadzone=21,11 / fast_pskip=1 / chroma_qp_offset=-2 / threads=12 / lookahead_threads=2 / sliced_threads=0 / nr=0 / decimate=1 / interlaced=0 / bluray_compat=0 / constrained_intra=0 / bframes=3 / b_pyramid=2 / b_adapt=2 / b_bias=0 / direct=3 / weightb=1 / open_gop=0 / weightp=2 / keyint=240 / keyint_min=24 / scenecut=40 / intra_refresh=0 / rc_lookahead=50 / rc=2pass / mbtree=1 / bitrate=4100 / ratetol=1.0 / qcomp=0.60 / qpmin=0 / qpmax=69 / qpstep=4 / cplxblur=20.0 / qblur=0.5 / ip_ratio=1.40 / aq=1:1.00
Language : English
Default : Yes
Forced : No
Audio #1
ID : 2
Format : AC-3
Format/Info : Audio Coding 3
Mode extension : CM (complete main)
Format settings, Endianness : Big
Codec ID : A_AC3
Duration : 1h 23mn
Bit rate mode : Constant
Bit rate : 192 Kbps
Channel(s) : 2 channels
Channel positions : Front: L R
Sampling rate : 48.0 KHz
Bit depth : 16 bits
Compression mode : Lossy
Stream size : 115 MiB (3%)
Language : Russian
Default : Yes
Forced : No
Audio #2
ID : 3
Format : DTS
Format/Info : Digital Theater Systems
Mode : 16
Format settings, Endianness : Big
Codec ID : A_DTS
Duration : 1h 23mn
Bit rate mode : Constant
Bit rate : 1 509 Kbps
Channel(s) : 6 channels
Channel positions : Front: L C R, Side: L R, LFE
Sampling rate : 48.0 KHz
Bit depth : 24 bits
Compression mode : Lossy
Stream size : 902 MiB (26%)
Language : English
Default : No
Forced : No
Menu
00:00:00.000 : en:00:00:00.000
00:07:15.435 : en:00:07:15.435
00:13:36.816 : en:00:13:36.816
00:21:19.278 : en:00:21:19.278
00:27:15.634 : en:00:27:15.634
00:34:27.065 : en:00:34:27.065
00:41:05.463 : en:00:41:05.463
00:49:22.960 : en:00:49:22.960
00:53:51.228 : en:00:53:51.228
01:04:15.852 : en:01:04:15.852
01:09:23.159 : en:01:09:23.159
01:18:51.727 : en:01:18:51.727

Скриншоты:

Яндекс.Метрика
Рейтинг@Mail.ru