Ловим плотву (2010) TVRip

 

Создавать темы 02-Июн-2016 16:21

-Ловим плотву (2010) TVRip-Название: Ловим плотву
Жанр: Рыбалка, документальный
Год выхода: 2010-О фильме:
Искусственное Чорштынское озеро, расположенное в горном районе Польши Подгалье, возникло в прошлом веке после постройки дамбы на реке Дунаец. Оно прекрасно вписалось в пейзаж, открыв новые рыболовные возможности для всего региона. Помимо местных жителей сюда приезжают рыбаки из самых разных мест. Что использовать – фидер или поплавочную удочку? Как выбрать хорошую прикормку и уловистую приманку? Как совершенствовать мастерство, чтобы от мелкой плотвички перейти к крупным экземплярам? Ответы на все эти вопросы можно узнать, посмотрев фильм.-Страна: Польша
Перевод: Профессиональный (одноголосый)
Продолжительность: 00:21:26
Файл
Кодек: XviD
Качество: TVRip
Видео: 720x400 (16:9), 1700 Kbps, 25fps
Звук: MP3, 128 Kbps, 2 channels, 48.0 KHz

Mediainfo

D:Ловим плотву.avi
Format : AVI
Format/Info : Audio Video Interleave
File size : 282 MiB
Duration : 21mn 26s
Overall bit rate : 1 841 Kbps
Writing application : XviD4PSP 6.0 / 54.29.105
Video
ID : 1
Format : MPEG-4 Visual
Format profile : Advanced [email protected]
Format settings, BVOP : 1
Format settings, QPel : No
Format settings, GMC : No warppoints
Format settings, Matrix : Default (H.263)
Codec ID : XVID
Codec ID/Hint : XviD
Duration : 21mn 26s
Bit rate : 1 700 Kbps
Width : 720 pixels
Height : 400 pixels
Display aspect ratio : 16:9
Frame rate : 25.000 fps
Color space : YUV
Chroma subsampling : 4:2:0
Bit depth : 8 bits
Scan type : Progressive
Compression mode : Lossy
Bits/(Pixel*Frame) : 0.236
Stream size : 261 MiB (92%)
Writing library : XviD 64
Audio
ID : 0
Format : MPEG Audio
Format version : Version 1
Format profile : Layer 3
Mode : Joint stereo
Mode extension : MS Stereo
Codec ID : 55
Codec ID/Hint : MP3
Duration : 21mn 25s
Bit rate mode : Constant
Bit rate : 128 Kbps
Channel(s) : 2 channels
Sampling rate : 48.0 KHz
Compression mode : Lossy
Stream size : 19.6 MiB (7%)
Alignment : Aligned on interleaves
Interleave, duration : 40 ms (1.00 video frame)
Writing library : LAME3.99.4

Скриншоты

Яндекс.Метрика
Рейтинг@Mail.ru