Экипаж (2016) HDRip-AVC от ExKinoRay | Лицензия

 

Создавать темы 01-Июн-2016 05:26

Информация о фильме
Название: Экипаж
Год выхода: 2016
Жанр: драма, приключения, триллер
Режиссер: Николай Лебедев
В ролях: Данила Козловский, Владимир Машков, Агне Грудите, Сергей Кемпо, Катерина Шпица, Сергей Шакуров, Сергей Газаров, Елена Яковлева, Алёна Бабенко, Сергей Романович
О фильме: Алексей Гущин — молодой пилот, имеющий своенравный характер, из-за чего способен нарушать приказы начальства, за что его уже выгоняли из пограничных войск, военной и транспортной авиации. Имея плохую характеристику, Алексей от безысходности приезжает к своему отцу, в прошлом работавшему авиаконструктором, который делает звонок своему знакомому, в котором предлагает кандидатуру сына на должность пилота в авиакомпании «Пегас Авиа», базирующейся в московском аэропорту Внуково.... Один из рейсов стал для многих роковым. Этот фильм не является ремейком одноимённого советского фильма-катастрофы 1979 года, хотя используют аналогичную тему авиакатастрофы.- -Выпущено: Россия
Продолжительность: 02:17:11
Озвучивание: Оригинальное [лицензия]-Файл
Качество: HDRip (AVC)
Видео: MPEG-4 AVC, 1808 Кбит/с, 720x308
Аудио: AC3, 6 ch, 448 Кбит/с-Релиз от:
Автор релиза:

MI

General
Unique ID : 181299711791906225101069888177942847423 (0x88650DEC2AE45DB1B50D28798B5C5FBF)
Complete name : C:Ekipag.2016.O.HDRip.AVC.ExKinoRay.mkv
Format : Matroska
Format version : Version 4 / Version 2
File size : 2.16 GiB
Duration : 2h 17mn
Overall bit rate : 2 252 Kbps
Movie name : Ekipag 2016 from ExKinoRay
Encoded date : UTC 2016-05-31 22:26:16
Writing application : mkvmerge v6.6.0 ('The Edge Of The In Between') built on Dec 1 2013 17:55:00
Writing library : libebml v1.3.0 + libmatroska v1.4.1
Video
ID : 1
Format : AVC
Format/Info : Advanced Video Codec
Format profile : [email protected]
Format settings, CABAC : Yes
Format settings, ReFrames : 12 frames
Codec ID : V_MPEG4/ISO/AVC
Duration : 2h 17mn
Bit rate : 1 808 Kbps
Width : 720 pixels
Height : 308 pixels
Display aspect ratio : 2.35:1
Frame rate mode : Constant
Frame rate : 24.000 fps
Color space : YUV
Chroma subsampling : 4:2:0
Bit depth : 8 bits
Scan type : Progressive
Bits/(Pixel*Frame) : 0.340
Stream size : 1.69 GiB (78%)
Title : Enigma
Writing library : x264 core 142 r2431 ac76440
Encoding settings : cabac=1 / ref=12 / deblock=1:-3:-3 / analyse=0x3:0x113 / me=umh / subme=10 / psy=1 / psy_rd=1.05:0.10 / mixed_ref=1 / me_range=32 / chroma_me=1 / trellis=2 / 8x8dct=1 / cqm=0 / deadzone=21,11 / fast_pskip=0 / chroma_qp_offset=-3 / threads=12 / lookahead_threads=2 / sliced_threads=0 / nr=0 / decimate=0 / interlaced=0 / bluray_compat=0 / constrained_intra=0 / bframes=9 / b_pyramid=2 / b_adapt=2 / b_bias=0 / direct=3 / weightb=1 / open_gop=0 / weightp=2 / keyint=240 / keyint_min=24 / scenecut=40 / intra_refresh=0 / rc_lookahead=40 / rc=2pass / mbtree=0 / bitrate=1808 / ratetol=1.0 / qcomp=0.60 / qpmin=0 / qpmax=51 / qpstep=4 / cplxblur=20.0 / qblur=0.5 / vbv_maxrate=50000 / vbv_bufsize=62500 / nal_hrd=none / filler=0 / ip_ratio=1.40 / pb_ratio=1.30 / aq=1:1.00
Language : English
Default : Yes
Forced : No
Color primaries : BT.709
Transfer characteristics : BT.709
Matrix coefficients : BT.709
Audio
ID : 2
Format : AC-3
Format/Info : Audio Coding 3
Mode extension : CM (complete main)
Format settings, Endianness : Big
Codec ID : A_AC3
Duration : 2h 17mn
Bit rate mode : Constant
Bit rate : 448 Kbps
Channel(s) : 6 channels
Channel positions : Front: L C R, Side: L R, LFE
Sampling rate : 48.0 KHz
Bit depth : 16 bits
Compression mode : Lossy
Stream size : 440 MiB (20%)
Language : Russian
Default : Yes
Forced : No
Menu
00:00:00.000 : en:00:00:00.000
00:05:00.000 : en:00:05:00.000
00:10:00.000 : en:00:10:00.000
00:15:00.000 : en:00:15:00.000
00:20:00.000 : en:00:20:00.000
00:25:00.000 : en:00:25:00.000
00:30:00.000 : en:00:30:00.000
00:35:00.000 : en:00:35:00.000
00:40:00.000 : en:00:40:00.000
00:45:00.000 : en:00:45:00.000
00:50:00.000 : en:00:50:00.000
00:55:00.000 : en:00:55:00.000
01:00:00.000 : en:01:00:00.000
01:05:00.000 : en:01:05:00.000
01:10:00.000 : en:01:10:00.000
01:15:00.000 : en:01:15:00.000
01:20:00.000 : en:01:20:00.000
01:25:00.000 : en:01:25:00.000
01:30:00.000 : en:01:30:00.000
01:35:00.000 : en:01:35:00.000
01:40:00.000 : en:01:40:00.000
01:45:00.000 : en:01:45:00.000
01:50:00.000 : en:01:50:00.000
01:55:00.000 : en:01:55:00.000
02:00:00.000 : en:02:00:00.000
02:05:00.000 : en:02:05:00.000
02:10:00.000 : en:02:10:00.000
02:15:00.000 : en:02:15:00.000

Скриншоты:

Яндекс.Метрика
Рейтинг@Mail.ru