Алиса в Зазеркалье / Alice Through the Looking Glass (2016) TC | D

 

Создавать темы 30-Май-2016 13:27

- Алиса в Зазеркалье / Alice Through the Looking Glass (2016) TC - Производство: США
Жанр: Фэнтези, Приключения, Семейный
Режиссер: Джеймс Бобин
Актеры: Миа Васиковска, Джонни Депп, Хелена Бонем Картер, Энн Хэтэуэй, Саша Барон Коэн, Рис Иванс, Мэтт Лукас, Линдси Дункан
Описание:
На этот раз главной героине предстоит отправиться в путешествие во времени, полное неожиданностей и ярких открытий, чтобы спасти своего друга, Безумного Шляпника...
Возраст: 12+ (зрителям, достигшим 12 лет)
Рейтинг MPAA: PG (рекомендуется присутствие родителей)
Дата мировой премьеры: 25 мая 2016
Дата российской премьеры: 26 мая 2016
Продолжительность: 01:51:15
Качество видео: TC
Перевод: Дублированный
Субтитры: Китайские (вшитые, не отключаемые)
Реклама: Присутствуют вставки голосовой и текстовой рекламы.
Примечание: Не хватает около 3-х минут перевода
Видео: MPEG4, XviD, 720x400 (16:9), 29.970 fps, 1 663 Kbps (0.193 bit/pixel)
Аудио: AC-3, 48.0 KHz, 2 ch, 192 Kbps, CBR

Mediainfo:

Format : AVI
Format/Info : Audio Video Interleave
File size : 1.45 GiB
Duration : 1h 51mn
Overall bit rate : 1 867 Kbps
Writing application : VirtualDubMod 1.5.10.3 (build 2550/release)
Writing library : VirtualDubMod build 2550/release
Video
ID : 0
Format : MPEG-4 Visual
Format profile : Advanced [email protected]
Format settings, BVOP : 2
Format settings, QPel : No
Format settings, GMC : No warppoints
Format settings, Matrix : Custom
Codec ID : XVID
Codec ID/Hint : XviD
Duration : 1h 51mn
Bit rate : 1 663 Kbps
Width : 720 pixels
Height : 400 pixels
Display aspect ratio : 16:9
Frame rate : 29.970 fps
Color space : YUV
Chroma subsampling : 4:2:0
Bit depth : 8 bits
Scan type : Progressive
Compression mode : Lossy
Bits/(Pixel*Frame) : 0.193
Stream size : 1.29 GiB (89%)
Writing library : XviD 1.2.1 (UTC 2008-12-04)
Audio
ID : 1
Format : AC-3
Format/Info : Audio Coding 3
Mode extension : CM (complete main)
Format settings, Endianness : Big
Codec ID : 2000
Duration : 1h 51mn
Bit rate mode : Constant
Bit rate : 192 Kbps
Channel(s) : 2 channels
Channel positions : Front: L R
Sampling rate : 48.0 KHz
Bit depth : 16 bits
Compression mode : Lossy
Delay relative to video : 3ms
Stream size : 153 MiB (10%)
Alignment : Split accross interleaves
Interleave, duration : 33 ms (1.00 video frame)
Interleave, preload duratio : 500 ms
Скриншоты:
Яндекс.Метрика
Рейтинг@Mail.ru