[ Сегодня на трекере фрилич! Идет свободное скачивание без начисления Download ]

(Atmospheric Sludge/Progressive Metal/Post-Hardcore) Cult of Luna and Julie Christmas - Mariner - 2016 [FLAC, image+.cue, lossless]

 

Создавать темы 27-Май-2016 03:22

-Cult of Luna and Julie Christmas - Mariner-- Год издания: 2016
Страна: Sweden
Жанр: Atmospheric Sludge/Progressive Metal/Post-Hardcore
Продолжительность: 00:54:36-Лейбл издания: Indie Recordings
Тип альбома: Master
Страна-выпуска диска: EU
Номер по каталогу: [INDIE168CDL]
Источник (релизер): RMT-Формат: FLAC
Битрейт аудио: lossless
Тип рипа: image+.cue
Наличие сканов в содержимом раздачи: да-

Трэклист

1. A Greater Call 8:19
2. Chevron 8:54
3. The Wreck of S.S. Needle 9:34
4. Approaching Transition 12:59
5. Cygnus 14:50
-

Лог создания рипа

Exact Audio Copy V1.1 from 23. June 2015EAC extraction logfile from 8. April 2016, 19:55Cult of Luna and Julie Christmas / MarinerUsed drive : TSSTcorpCDDVDW SU-208FB Adapter: 1 ID: 0Read mode : Secure
Utilize accurate stream : Yes
Defeat audio cache : Yes
Make use of C2 pointers : NoRead offset correction : 6
Overread into Lead-In and Lead-Out : No
Fill up missing offset samples with silence : Yes
Delete leading and trailing silent blocks : No
Null samples used in CRC calculations : Yes
Used interface : Native Win32 interface for Win NT & 2000Used output format : Internal WAV Routines
Sample format : 44.100 Hz; 16 Bit; StereoTOC of the extracted CD Track | Start | Length | Start sector | End sector
---------------------------------------------------------
1 | 0:00.00 | 8:19.05 | 0 | 37429
2 | 8:19.05 | 8:53.63 | 37430 | 77467
3 | 17:12.68 | 9:33.38 | 77468 | 120480
4 | 26:46.31 | 12:59.19 | 120481 | 178924
5 | 39:45.50 | 14:50.25 | 178925 | 245699Range status and errorsSelected range Filename C:\EAC\Cult of Luna and Julie Christmas - Mariner.wav Peak level 99.0 %
Extraction speed 3.4 X
Range quality 100.0 %
Copy CRC 045F28FD
Copy OKNo errors occurredAccurateRip summaryTrack 1 not present in database
Track 2 not present in database
Track 3 not present in database
Track 4 not present in database
Track 5 not present in databaseNone of the tracks are present in the AccurateRip databaseEnd of status report---- CUETools DB Plugin V2.1.6[CTDB TOCID: S97qagxkxlIB5oGA4D3Sugs.RPg-] found
Submit result: S97qagxkxlIB5oGA4D3Sugs.RPg- has been confirmed
Track | CTDB Status
1 | (1/1) Accurately ripped
2 | (1/1) Accurately ripped
3 | (1/1) Accurately ripped
4 | (1/1) Accurately ripped
5 | (1/1) Accurately ripped==== Log checksum 7E80F6B9ABFA6CDF5E9116F6EBAC18B85482D90B11CF850CBB756CC8A9AC41BC ====
-

Индексная карта (non-compilant .cue)

REM DATE 2016
REM DISCID 330CCC05
REM COMMENT "ExactAudioCopy v1.1"
PERFORMER "Cult of Luna and Julie Christmas"
TITLE "Mariner"
FILE "Cult of Luna and Julie Christmas - Mariner.flac" WAVE
TRACK 01 AUDIO
TITLE "A Greater Call"
PERFORMER "Cult of Luna and Julie Christmas"
INDEX 01 00:00:00
TRACK 02 AUDIO
TITLE "Chevron"
PERFORMER "Cult of Luna and Julie Christmas"
INDEX 01 08:19:05
TRACK 03 AUDIO
TITLE "The Wreck of S.S. Needle"
PERFORMER "Cult of Luna and Julie Christmas"
INDEX 01 17:12:68
TRACK 04 AUDIO
TITLE "Approaching Transition"
PERFORMER "Cult of Luna and Julie Christmas"
INDEX 01 26:46:31
TRACK 05 AUDIO
TITLE "Cygnus"
PERFORMER "Cult of Luna and Julie Christmas"
INDEX 01 39:45:50
-

Скриншот спектра частот

-YouTube-Работаю не за Спасибо , а за ИДЕЮ.-
Яндекс.Метрика
Рейтинг@Mail.ru