(GothicRock, Hard Rock) The 69 Eyes - Universal Monsters - 2016 [FLAC, image+.cue, lossless]

 

Создавать темы 27-Май-2016 03:16

-The 69 Eyes - Universal Monsters-- Год издания: 2016
Страна: Helsinki, Uusimaa, Finland
Жанр: Gothic/Hard Rock
Продолжительность: 46:50-Лейбл издания: Nuclear Blast
Тип альбома: Master
Страна-выпуска диска: USA
Номер по каталогу: NB 3230-2
Источник (релизер): RMT-Формат: FLAC
Битрейт аудио: lossless
Тип рипа: image+.cue
Наличие сканов в содержимом раздачи: да-

Трэклист

01 - - Dolce Vita
02 - - Jet Fighter Plane
03 - - Blackbird Pie
04 - - Lady Darkness
05 - - Miss Pastis
06 - - Shallow Graves
07 - - Jerusalem
08 - - Stiv & Johnny
09 - - Never
10 - - Blue
11 - - Rock `n` Roll Junkie
-

Лог создания рипа

Exact Audio Copy V1.1 from 23. June 2015EAC extraction logfile from 21. May 2016, 18:38The 69 Eyes / Universal MonstersUsed drive : HP DVD Writer 1170d Adapter: 1 ID: 1Read mode : Secure
Utilize accurate stream : Yes
Defeat audio cache : Yes
Make use of C2 pointers : NoRead offset correction : 6
Overread into Lead-In and Lead-Out : No
Fill up missing offset samples with silence : Yes
Delete leading and trailing silent blocks : No
Null samples used in CRC calculations : Yes
Used interface : Native Win32 interface for Win NT & 2000Used output format : User Defined Encoder
Selected bitrate : 1024 kBit/s
Quality : Low
Add ID3 tag : No
Command line compressor : C:\Program Files (x86)\Exact Audio Copy\FLAC\FLAC.EXE
Additional command line options : -V -8 -T "Date=%year%" -T "Genre=%genre%" -T"COMMENT=Ripped by Ungern666" -8 -V %source%TOC of the extracted CD Track | Start | Length | Start sector | End sector
---------------------------------------------------------
1 | 0:00.00 | 4:13.20 | 0 | 18994
2 | 4:13.20 | 4:07.42 | 18995 | 37561
3 | 8:20.62 | 5:59.02 | 37562 | 64488
4 | 14:19.64 | 3:43.30 | 64489 | 81243
5 | 18:03.19 | 3:42.08 | 81244 | 97901
6 | 21:45.27 | 4:08.17 | 97902 | 116518
7 | 25:53.44 | 5:11.33 | 116519 | 139876
8 | 31:05.02 | 3:56.53 | 139877 | 157629
9 | 35:01.55 | 3:30.33 | 157630 | 173412
10 | 38:32.13 | 4:11.24 | 173413 | 192261
11 | 42:43.37 | 4:06.35 | 192262 | 210746Range status and errorsSelected range Filename C:\EAC\Ungern666\The 69 Eyes - Universal Monsters.wav Peak level 100.0 %
Extraction speed 6.8 X
Range quality 100.0 %
Test CRC 64D5E513
Copy CRC 64D5E513
Copy OKNo errors occurredAccurateRip summaryTrack 1 not present in database
Track 2 not present in database
Track 3 not present in database
Track 4 not present in database
Track 5 not present in database
Track 6 not present in database
Track 7 not present in database
Track 8 not present in database
Track 9 not present in database
Track 10 not present in database
Track 11 not present in databaseNone of the tracks are present in the AccurateRip databaseEnd of status report---- CUETools DB Plugin V2.1.6[CTDB TOCID: IKMCht9Ttzor60omyJwoAWV1JwQ-] found
Submit result: IKMCht9Ttzor60omyJwoAWV1JwQ- has been confirmed
Track | CTDB Status
1 | (10/12) Accurately ripped
2 | (10/12) Accurately ripped
3 | (10/12) Accurately ripped
4 | (10/12) Accurately ripped
5 | (10/12) Accurately ripped
6 | (10/12) Accurately ripped
7 | (10/12) Accurately ripped
8 | (10/12) Accurately ripped
9 | (10/12) Accurately ripped
10 | (10/12) Accurately ripped
11 | (10/12) Accurately ripped==== Log checksum 3D508D85F1A464F5EF9F40CC3D4DF5E90A9253178E9CB118772A9F6B6FF707D6 ====
-

Индексная карта (non-compilant .cue)

REM GENRE Gothic/Hard Rock
REM DATE 2016
REM COMMENT 2016, US, First Press, DR6
PERFORMER "The 69 Eyes"
TITLE "Universal Monsters"
FILE "The 69 Eyes - Universal Monsters.flac" WAVE
TRACK 01 AUDIO
TITLE "Dolce Vita"
INDEX 01 00:00:00
TRACK 02 AUDIO
TITLE "Jet Fighter Plane"
INDEX 01 04:13:20
TRACK 03 AUDIO
TITLE "Blackbird Pie"
INDEX 01 08:20:62
TRACK 04 AUDIO
TITLE "Lady Darkness"
INDEX 01 14:19:64
TRACK 05 AUDIO
TITLE "Miss Pastis"
INDEX 01 18:03:19
TRACK 06 AUDIO
TITLE "Shallow Graves"
INDEX 01 21:45:27
TRACK 07 AUDIO
TITLE "Jerusalem"
INDEX 01 25:53:44
TRACK 08 AUDIO
TITLE "Stiv & Johnny"
INDEX 01 31:05:02
TRACK 09 AUDIO
TITLE "Never"
INDEX 01 35:01:55
TRACK 10 AUDIO
TITLE "Blue"
INDEX 01 38:32:13
TRACK 11 AUDIO
TITLE "Rock `n` Roll Junkie"
INDEX 01 42:43:37
-

Скриншот спектра частот

--Работаю не за Спасибо , а за ИДЕЮ.-
Яндекс.Метрика
Рейтинг@Mail.ru