[ Сегодня на трекере фрилич! Идет свободное скачивание без начисления Download ]

Бородач (2016) WEB-DL [H.264/720p-LQ] (сезон 1, серии 1-14 из 14)

 

Создавать темы 26-Май-2016 20:08

- Бородач (2016) WEB-DL [H.264/720p-LQ] - Телекомпания: ТНТ
Жанр: Комедия
Режиссер: Заур Болотаев
Актеры: Михаил Галустян, Демис Карибов, Евгений Казанцев, Мария Староторжская, Михаил Куряев, Александр Луканичев, Дмитрий Меденников, Ксения Бехтина, Анастасия Лучинина
Описание:
Обаятельный, но невезучий охранник Александр Родионович Бородач впутывается вместе со своими друзьями в невообразимые истории, пытается покорить сердце стриптизерши Ирины Скоробейниковой, но неминуемо оказывается в отделении полиции, где его с пристрастием допрашивает начальник в исполнении резидента Comedy Club Демиса Карибидиса.
Дата премьеры в России: 15 января 2016
Продолжительность: ~ 00:22:00 серия
Качество видео: WEB-DL
Перевод: Не требуется (русский язык)
Видео: AVC, 1280x720 (16:9), 25.000 fps, 3 215 Kbps (0.140 bit/pixel)
Аудио: AC-3, 48.0 KHz, 2 ch, 192 Kbps, CBR

Mediainfo:

Format                      : Matroska
Format version              : Version 4 / Version 2
File size                   : 554 MiB
Duration                    : 22mn 17s
Overall bit rate            : 3 476 Kbps
Encoded date                : UTC 2016-01-25 19:09:52
Writing application         : mkvmerge v8.8.0 ('Wind at my back') 64bit
Writing library             : libebml v1.3.3 + libmatroska v1.4.4
DURATION                    : 00:22:17.472000000
NUMBER_OF_FRAMES            : 41796
NUMBER_OF_BYTES             : 32099328
_STATISTICS_WRITING_APP     : mkvmerge v8.8.0 ('Wind at my back') 64bit
_STATISTICS_WRITING_DATE_UT : 2016-01-25 19:09:52
_STATISTICS_TAGS            : BPS DURATION NUMBER_OF_FRAMES NUMBER_OF_BYTES
Video
ID                          : 1
Format                      : AVC
Format/Info                 : Advanced Video Codec
Format profile              : [url=mailto:[email protected]][email protected][/url]
Format settings, CABAC      : Yes
Format settings, ReFrames   : 8 frames
Codec ID                    : V_MPEG4/ISO/AVC
Duration                    : 22mn 17s
Bit rate                    : 3 215 Kbps
Width                       : 1 280 pixels
Height                      : 720 pixels
Display aspect ratio        : 16:9
Frame rate mode             : Constant
Frame rate                  : 25.000 fps
Color space                 : YUV
Chroma subsampling          : 4:2:0
Bit depth                   : 8 bits
Scan type                   : Progressive
Bits/(Pixel*Frame)          : 0.140
Stream size                 : 513 MiB (92%)
Writing library             : x264 core 142 r2455 021c0dc
Encoding settings           : cabac=1 / ref=8 / deblock=1:-1:-1 / analyse=0x3:0x133 / me=umh / subme=9 / psy=1 / psy_rd=1.00:0.15 / mixed_ref=1 / me_range=16 / chroma_me=1 / trellis=2 / 8x8dct=1 / cqm=0 / deadzone=21,11 / fast_pskip=1 / chroma_qp_offset=-3 / threads=18 / lookahead_threads=1 / sliced_threads=0 / nr=0 / decimate=1 / interlaced=0 / bluray_compat=0 / constrained_intra=0 / bframes=3 / b_pyramid=2 / b_adapt=2 / b_bias=0 / direct=3 / weightb=1 / open_gop=0 / weightp=2 / keyint=250 / keyint_min=25 / scenecut=40 / intra_refresh=0 / rc_lookahead=60 / rc=crf / mbtree=1 / crf=17.0 / qcomp=0.60 / qpmin=0 / qpmax=69 / qpstep=4 / vbv_maxrate=3600 / vbv_bufsize=3600 / crf_max=0.0 / nal_hrd=none / filler=0 / ip_ratio=1.40 / aq=1:1.00
Default                     : Yes
Forced                      : No
Audio
ID                          : 2
Format                      : AC-3
Format/Info                 : Audio Coding 3
Mode extension              : CM (complete main)
Format settings, Endianness : Big
Codec ID                    : A_AC3
Duration                    : 22mn 17s
Bit rate mode               : Constant
Bit rate                    : 192 Kbps
Channel(s)                  : 2 channels
Channel positions           : Front: L R
Sampling rate               : 48.0 KHz
Bit depth                   : 16 bits
Compression mode            : Lossy
Stream size                 : 30.6 MiB (6%)
Default                     : Yes
Forced                      : No
Скриншоты:
Яндекс.Метрика
Рейтинг@Mail.ru