[ Сегодня на трекере фрилич! Идет свободное скачивание без начисления Download ]

Степные волки (Серии 1—24 из 24) (Евгений Сологалов, Дмитрий Матов) [2016, криминальная драма, HDTVRip]

 

Создавать темы 26-Май-2016 06:14

--Степные волки--
  • Год выпуска: 2016
  • Страна: Россия / «Форвард Фильм», «Центр кинопроизводства»
  • Жанр: криминальная драма
  • Продолжительность: 24 х ~00:46:00
  • Перевод: Не требуется-
  • Режиссёр: Евгений Сологалов, Дмитрий Матов-
  • В ролях: Юрий Чурсин, Михаил Гаврилов, Борис Миронов, Татьяна Лютаева, Константин Глушков, Олеся Фаттахова, Виктор Соловьев, Антон Ескин, Георгий Громов, Алеса Качер, Александр Суворов...-
  • Действие сериала разворачивается в небольшом городе Степные Курганы, куда в командировку отправляется молодой следователь Андрей Дымов (Михаил Гаврилов). Он едет на поиски своего пропавшего друга и коллеги. В поездку он берет свою жену Катерину (Олеся Фаттахова).
    В городе заправляет банда «Степные волки», которой руководит семейный клан Волковых. Чтобы продвинуться в расследовании, Андрей вынужден играть по правилам бандитов и идти на сомнительные компромиссы. Едва Дымов понимает, что готов дать бой «волкам», судьба обрушивает на него новый удар: его супруга влюбилась в наследника криминального клана — Ивана Волкова (Юрий Чурсин).
    -
  • Премьера в России: 25 мая 2016 (НТВ)--
  • --
  • Качество видео: HDTVRip
  • Формат видео: AVI
  • Видео кодек: XviD
  • Аудио кодек: АС3
  • Видео: 720x400 (1.80:1), 25.000 fps, XviD MPEG-4, ~1500 kbps avg, 0.204 bit/pixel
  • Аудио: 48.0 kHz, AC3 Dolby Digital, 2/0 (L,R) ch, ~192.00 kbps avg
  • Субтитры: нет
--

Внимание ! Раздача ведётся путём добавления новых серий !!!

Внимание! Раздача ведётся путём добавления новых серий; при каждом добавлении создаётся новый торрент. Чтобы начать докачку новой серии, пользователям необходимо сделать следующее:
(1) остановить скачивание,раздачу,
(2) удалить старый торрент у себя из клиента (старые серии удалять не надо),
(3) скачать новый торрент и запустить его у себя в клиенте вместо старого, при этом указать клиенту путь в старую папку куда и должно происходить скачивание новых серий.
Ваш клиент при этом должен произвести хеширование (проверку) старой папки (если не производит сами - помогите ему сделать это), и будет докачивать только те серии которых у вас ещё нет. Старые серии при этом не удаляются, а продолжают раздаваться!
Eсли вы уже удалили старые серии, то предотвратить повторную закачку старых серий можно, отжав галочку в соответствующих местах при запуске нового торрента. По возможности, желательно не удалять старые серии как можно дольше чтобы релизёр не столько продолжал раздавать старые серии, а смог сконцентрироваться на новых.

Media Info

General
Complete name : W:\O.S.A.\Торренты\Завершенные торренты\Stepnyje.volki.2015.HDTVRip.Files-x\01.Stepnyje.volki.2015.HDTVRip.Files-x.avi
Format : AVI
Format/Info : Audio Video Interleave
File size : 550 MiB
Duration : 45mn 55s
Overall bit rate : 1 673 Kbps
Writing application : VirtualDubModRus 1.5.10.2 (build 2542/release)
Writing library : VirtualDubMod build 2542/release
Video
ID : 0
Format : MPEG-4 Visual
Format profile : Advanced [email protected]
Format settings, BVOP : 1
Format settings, QPel : No
Format settings, GMC : No warppoints
Format settings, Matrix : Custom
Codec ID : XVID
Codec ID/Hint : XviD
Duration : 45mn 55s
Bit rate : 1 471 Kbps
Width : 720 pixels
Height : 400 pixels
Display aspect ratio : 16:9
Frame rate : 25.000 fps
Color space : YUV
Chroma subsampling : 4:2:0
Bit depth : 8 bits
Scan type : Progressive
Compression mode : Lossy
Bits/(Pixel*Frame) : 0.204
Stream size : 483 MiB (88%)
Writing library : XviD 73
Audio
ID : 1
Format : AC-3
Format/Info : Audio Coding 3
Mode extension : CM (complete main)
Codec ID : 2000
Duration : 45mn 55s
Bit rate mode : Constant
Bit rate : 192 Kbps
Channel(s) : 2 channels
Channel positions : Front: L R
Sampling rate : 48.0 KHz
Bit depth : 16 bits
Compression mode : Lossy
Stream size : 63.1 MiB (11%)
Alignment : Split accross interleaves
Interleave, duration : 40 ms (1.00 video frame)
Interleave, preload duration : 500 ms
---- --
Яндекс.Метрика
Рейтинг@Mail.ru