Хроники Призрачного племени / Chronicles of the Ghostly Tribe / Jiu ceng yao ta (Чуань Лу / Chuan Lu) [2015 г., приключения, фэнтези, WEB-DLRip] DVO

 

Создавать темы 26-Май-2016 05:12

-Хроники Призрачного племени / Chronicles of the Ghostly Tribe / Jiu ceng yao ta-- Производство: Китай, China Film Co., Chuan Films, ...
Год выпуска: 2015 г.
Жанр: приключения, фэнтези
Продолжительность: 01:58:03Мировая премьера: 30 сентября 2015
Перевод: Любительский (двухголосый, закадровый)
Режиссер: Чуань Лу / Chuan Lu-В ролях: Марк Чао, Яо Чэнь, Чэнь Цзинь, Ли Фэн, Чен Ли, Гуанджи Ли, Янь Тан, Ридиан Вон, Дешун Ванг, Цинсян Ван-Описание: В 1979 году в одной из пещер горной цепи Куньлунь были найдены кости таинственного существа. Ху Байи (Марк Чао) снаряжает экспедицию в глубины этих гор, чтобы отыскать ещё больше скрытых палеонтологических реликвий. Спустившись вниз, исследователи обнаруживают загадочный город, скрытый под толщей горных пород. Город некогда принадлежал могучей цивилизации, которая обладала великой силой и знала тайны жизни и смерти. Радость столь дивной находки омрачили ужасающие существа, напавшие на группу исследователей.-
Качество видео: WEB-DLRip
Контейнер: AVI
Видео кодек: XviD
Аудио кодек: AC3
Видео: 720x304 (2.37:1), 24 fps, XviD build 50 ~1565 kbps avg, 0.30 bit/pixel
Аудио: 44.1 kHz, AC3 Dolby Digital, 2/0 (L,R) ch, ~192 kbps
Cубтитры: китайские
Формат субтитров: hardsub (неотключаемые)

Media Info

Полное имя : J:\Хроники призрачного племени\Hroniky prizrachnogo plemeny .2015.[pirat.ca].avi
Формат : AVI
Формат/Информация : Audio Video Interleave
Размер файла : 1,46 Гбайт
Продолжительность : 1 ч. 58 м.
Общий поток : 1767 Кбит/сек
Название фильма : Hroniky prizrachnogo plemeny .2015.[pirat.ca]
Программа кодирования : VirtualDubMod 1.5.10.3 | www.virtualdub-fr.org || (build 2550/release)Видео
Идентификатор : 0
Формат : MPEG-4 Visual
Профиль формата : Advanced [email protected]/* */
Параметр BVOP формата : 2
Параметр QPel формата : Нет
Параметр GMC формата : Без точки перехода
Параметр матрицы формата : Default (H.263)
Идентификатор кодека : XVID
Идентификатор кодека/Подсказка : XviD
Продолжительность : 1 ч. 58 м.
Битрейт : 1566 Кбит/сек
Ширина : 720 пикселей
Высота : 304 пикселя
Соотношение сторон : 2,35:1
Частота кадров : 24,000 кадра/сек
Цветовое пространство : YUV
Субдискретизация насыщенности : 4:2:0
Битовая глубина : 8 бит
Тип развёртки : Прогрессивная
Метод сжатия : С потерями
Бит/(Пиксели*Кадры) : 0.298
Размер потока : 1,29 Гбайт (89%)
Библиотека кодирования : XviD 1.2.1 (UTC 2008-12-04)Аудио
Идентификатор : 1
Формат : AC-3
Формат/Информация : Audio Coding 3
Расширение режима : CM (complete main)
Параметр Endianness формата : Big
Идентификатор кодека : 2000
Продолжительность : 1 ч. 58 м.
Вид битрейта : Постоянный
Битрейт : 192 Кбит/сек
Каналы : 2 канала
Расположение каналов : Front: L R
Частота : 44,1 КГц
Частота кадров : 28,711 кадров/сек (1536 spf)
Метод сжатия : С потерями
Задержка видео : 1 мс.
Размер потока : 162 Мбайт (11%)
Выравнивание : Разделение по промежуткам
Продолжительность промежутка : 42 мс. (1,00 видеокадр)
Время предзагрузки промежутка : 500 мс.

Скриншот c названием фильма

Скриншоты

Трейлер

Яндекс.Метрика
Рейтинг@Mail.ru