Искатели приключений / Les aventuriers (Робер Энрико / Robert Enrico) [1967 г., Драма, Приключения, Боевик, HD DVDRip] Dub [Советский дубляж с вставками многоголосыми] + Original (Fre)

 

Создавать темы 26-Май-2016 05:10

-Искатели приключений / Les aventuriers-- Производство: Франция, Италия, CGIC, Compagnia Generale Finanziaria Cinematografica, SNC
Год выпуска: 1967 г.
Жанр: Драма, Приключения, Боевик
Продолжительность: 01:52:58Мировая премьера: 12 апреля 1967
Перевод: Профессиональный (полное дублирование) [Советский дубляж с вставками многоголосыми]
Оригинальный аудиопоток: французскийРежиссер: Робер Энрико / Robert Enrico-В ролях: Ален Делон /Alain Delon/, Лино Вентура /Lino Ventura/, Джоанна Шимкус /Joanna Shimkus/, Серж Реджани /Serge Reggiani/, Ганс Мейер /Hans Meyer/, Жан Дарье /Jean Darie/, Жан Троньон /Jean Trognon/, Одиль Пуаccон /Odile Poisson/, Ирен Тунк /Irene Tunc/, Валерий Инкижинов /Valery Inkijinoff/, Рауль Гилад /Raoul Guylad/, Жан Лендьер /Jean Landier/, Ги Делорм /Guy Delorme/, Патрик Бернхард /Patrick Bernhard/, Роланд Флёри /Roland Fleury/, Поль Кроше /Paul Crauchet/, Мик Бессон /Mick Besson/, Jean-Paul Blonday, Jean Falloux, Гастон Мёнье /Gaston Meunier/-Описание: Троицу отважных парижан одолевают сумасбродные мечты. Пролететь на самолете под Триумфальной аркой, например.Но даже такие устремления не останавливают их перед возможностью еще более рискованных приключений. Они отправляются к берегам Конго за …сокровищами. Но там их ждет роковое столкновение…-
Качество видео: HD DVDRip
Контейнер: AVI
Видео кодек: XviD
Аудио кодек: AC3
Видео: 720x304 (2.37:1), 23.976 fps, XviD build 50 ~1450 kbps avg, 0.28 bit/pixel
Аудио: 48 kHz, AC3 Dolby Digital, 2/0 (L,R) ch, ~192 kbps
Аудио #2: 48 kHz, AC3 Dolby Digital, 2/0 (L,R) ch, ~192 kbps
Cубтитры: отсутствуют

Доп. информация

Оба эпизода (посещение форта с Жан-Жаном и финальный бой) сняты в форте Боярд, находившемся в то время в состоянии крайнего запустения (что отчётливо наблюдается в картине). В общей сложности Боярд занимает 15 минут экранного времени. На них потребовалось три недели съёмок, которые так и не были завершены до конца, будучи прерванными сильным штормом. В ходе которого съёмочную группу пришлось в срочном порядке эвакуировать на вертолёте.
Фильм поставлен по одноимённому роману Хосе Джованни. Сам писатель в том же году снял собственную киноверсию своего романа. Она вышла под названием «Закон выжившего».
Персонажи Ролан Дарбан и Маню Борелли были заимствованы автором, Хосе Джованни, из своего первого романа «Дыра» (1957-1958). В одноимённой экранизации этого романа (реж. Жак Беккер, 1960) роль Ролана Дарбана сыграл непрофессиональный актёр Жак Кероди, а роль Маню Борелли — Филипп Леруа. Персонажи имеют весьма отдалённое внешнее сходство со своими прототипами и совершенно иную судьбу.

Рецензия

Я люблю тебя жизнь!В первую очередь, я бы хотел назвать этот фильм эталоном в жанре драмы. К такому выводу я пришёл ещё во время просмотра картины. Всё в фильме очень просто и элементарно, но выстроено так идеально, что не может не поражать своей лаконичностью.Те события, которые предшествовали поездке за сокровищами, оказались не вымученными сценаристами. Вполне реальные проблемы подвигли героев, к порою, отчаянным приключениям.Изучая характеры персонажей я понял, что эти люди должны были жить в более романтичные времена. Например в Средние века, будучи рыцарями и прекрасными дамами или в эпоху великих географических открытий. Просто тот мир, то время в котором оказались Летиция, Маню и Ролан оказались для них очень жестокими и губительными.Но, даже несмотря на это наши герои могли миновать все невзгоды если бы всю жизнь находились рядом друг с другом. Когда они были вместе, то могли своим присутствием помогать пережить самые неразрешимые проблемы друг друга.Меня очень тронули некоторые сцены из фильма. Например, когда Маню и Ролан одевали Литицию в водолазный костюм. Было видно эмоциональное напряжение героя Алена Делона, он был буквально на пределе от нервного срыва.Или, когда Маню посещал бывшее место выставки Летиции.Особенно меня впечатлили актёрские работы Алена Делона и Лино Вентуры. Образ первого, олицетворял весь молодецкий задор и бескомпромиссную удаль. А потрет второго говорил о некой сдержанности в эмоциональном плане, но всё же сохранял внутри себя любовь к своему увлечению, в данном случае автомобилям.Подводя итог, хочу лишний раз подчеркнуть, что картина эта посвящена дружбе и честности. Открытость и преданность герои пронесли до самых последних мгновений ленты. После просмотра меня уже несколько дней не покидает чувство, будто это история произошла на самом деле. Настолько глубоко и честно написана эта драма.10 из 10

Media Info

Формат : AVI
Формат/Информация : Audio Video Interleave
Размер файла : 1,46 Гбайт
Продолжительность : 1 ч. 52 м.
Общий поток : 1850 Кбит/сек
Название фильма : Искатели приключений.Les Aventuriers.[pirat.ca]
Жанр : Драма, Приключения
Программа кодирования : VirtualDubMod 1.5.10.2 (build 2540/release)
Формат оригинала/Имя : Movie
Примечание : Год: 1967Видео
Идентификатор : 0
Формат : MPEG-4 Visual
Профиль формата : Advanced [email protected]/* */
Параметр BVOP формата : 3
Параметр QPel формата : Нет
Параметр GMC формата : Без точки перехода
Параметр матрицы формата : Выборочная
Идентификатор кодека : XVID
Идентификатор кодека/Подсказка : XviD
Продолжительность : 1 ч. 52 м.
Битрейт : 1451 Кбит/сек
Ширина : 720 пикселей
Высота : 304 пикселя
Соотношение сторон : 2,35:1
Частота кадров : 23,976 (23976/1000) кадра/сек
Цветовое пространство : YUV
Субдискретизация насыщенности : 4:2:0
Битовая глубина : 8 бит
Тип развёртки : Прогрессивная
Метод сжатия : С потерями
Бит/(Пиксели*Кадры) : 0.277
Размер потока : 1,15 Гбайт (78%)
Библиотека кодирования : XviD 1.2.1 (UTC 2008-12-04)Аудио #1
Идентификатор : 1
Формат : AC-3
Формат/Информация : Audio Coding 3
Расширение режима : CM (complete main)
Параметр Endianness формата : Big
Идентификатор кодека : 2000
Продолжительность : 1 ч. 52 м.
Вид битрейта : Постоянный
Битрейт : 192 Кбит/сек
Каналы : 2 канала
Расположение каналов : Front: L R
Частота : 48,0 КГц
Частота кадров : 31,250 кадров/сек (1536 spf)
Метод сжатия : С потерями
Размер потока : 155 Мбайт (10%)
Выравнивание : Разделение по промежуткам
Продолжительность промежутка : 42 мс. (1,00 видеокадр)
Время предзагрузки промежутка : 500 мс.Аудио #2
Идентификатор : 2
Формат : AC-3
Формат/Информация : Audio Coding 3
Расширение режима : CM (complete main)
Параметр Endianness формата : Big
Идентификатор кодека : 2000
Продолжительность : 1 ч. 52 м.
Вид битрейта : Постоянный
Битрейт : 192 Кбит/сек
Каналы : 2 канала
Расположение каналов : Front: L R
Частота : 48,0 КГц
Частота кадров : 31,250 кадров/сек (1536 spf)
Метод сжатия : С потерями
Размер потока : 155 Мбайт (10%)
Выравнивание : Разделение по промежуткам
Продолжительность промежутка : 42 мс. (1,00 видеокадр)
Время предзагрузки промежутка : 500 мс.

Скриншот c названием фильма

Скриншоты

Трейлер

Яндекс.Метрика
Рейтинг@Mail.ru