Тайна фермы Мессе / La Horse (Пьер Гранье-Дефер / Pierre Granier-Deferre) [1969 г., триллер, криминал, DVDRip] Dub ["Союзмультфильм"] + MVO [5 канал]

 

Создавать темы 26-Май-2016 05:07

-Тайна фермы Мессе / La Horse-- Производство: Италия, Франция, Германия (ФРГ), Gafer, P.A.C., Romana Film, SNC
Год выпуска: 1969 г.
Жанр: триллер, криминал
Продолжительность: 01:16:56Мировая премьера: 22 февраля 1970
Перевод: Профессиональный (полное дублирование) ["Союзмультфильм"]
Перевод 2: Профессиональный (многоголосый, закадровый) [5 канал]
Режиссер: Пьер Гранье-Дефер / Pierre Granier-Deferre-В ролях: Жан Габен / Jean Gabin, Даниэль Ажоре / Danièle Ajoret, Мишель Барби / Michel Barbey, Кристиан Барбье / Christian Barbier, Пьер Дю (Дюкс) / Pierre Dux, Армандо Франчиоли / Armando Francioli, Жюльен Гийомар / Julien Guiomar, Элеанор Хирт / Eléonore Hirt, Райнхард Колльдехофф / Reinhard Kolldehoff, Феликс Мартен / Félix Marten, Доминик Зарди / Dominique Zardi
Роли дублировали: Михаил Болдуман, Рудольф Панков, Владимир Кенигсон, Александр Белявский, ...-Описание: Жизнь на ферме во французской глуши строго подчинена патриархальным законам. Всем здесь заправляет глава семьи Огюст. Его железной воле послушны и дети, и внуки. Только любимый внук Анри никак не хочет смириться с крестьянским бытом. Ища свою дорогу в жизни, Анри связывается с наркоторговцами. Однажды дед находит спрятанный на ферме героин. Не раздумывая, он сжигает товар и хладнокровно убивает приехавшего за ним гангстера. Брат убитого с четырьмя бандитами являются на ферму, чтобы отомстить. Но Огюст с зятьями устраивают засаду...-
Качество видео: DVDRip
Контейнер: AVI
Видео кодек: XviD
Аудио кодек: AC3
Видео: 688x384 (1.79:1), 25 fps, XviD build 65 ~2317 kbps avg, 0.35 bit/pixel
Аудио: 48 kHz, AC3 Dolby Digital, 2/0 (L,R) ch, ~192 kbps
Аудио #2: 48 kHz, AC3 Dolby Digital, 2/0 (L,R) ch, ~192 kbps
Cубтитры: отсутствуют

Доп. информация

Старик Огюст Маруйё, владелец фермы в местечке Мессе, где также проживают его дочери и их мужья, обнаруживает, что внук занят контрабандой наркотиков. Дед уничтожает найденный пакет с героином, который стоит несколько миллионов франков, прячет парня в подвал, а с его сообщниками, требующими возврата наркотика, расправляется вместе со своим преданным работником. Однако полиция начинает расследование. Огюст и все его родственники молчат. После прекращения дела внук решает остаться на ферме, хотя раньше эта перспектива его вообще не привлекала.

Рецензия

Несмотря на то, что фильм был снят 40 (!) лет назад, на мой взгляд он является одним из лучших в своем жанре (детектив-триллер). Фильм не имеет сложной сюжетной линии, но это не мешает ему держать в напряжении зрителя и сохранять интригу до конца.Режиссер создал непередаваемую атмосферу, ассоциирующуюся у меня со средневековым феодализмом, которая пронизывает весь фильм. Этому способствует музыкальное сопровождение — однообразное и монотонное. В любом другом фильме это можно было бы отнести к минусам, но здесь такая музыка удачно гармонирует с духом картины.Хочется отметить актерскую работу великого Жана Габена, сыгравшего роль главного героя — фермера Огюста. Неповторимое выражение лица и пронзительный взгляд Габена придают фильму особый шарм.10 из 10

Media Info

Формат : AVI
Формат/Информация : Audio Video Interleave
Размер файла : 1,46 Гбайт
Продолжительность : 1 ч. 16 м.
Общий поток : 2717 Кбит/сек
Название фильма : Taina fermy messe.[pirat.ca]
Программа кодирования : VirtualDubMod 1.5.10.2 (build 2540/release)Видео
Идентификатор : 0
Формат : MPEG-4 Visual
Профиль формата : Advanced [email protected]/* */
Параметр BVOP формата : 2
Параметр QPel формата : Нет
Параметр GMC формата : Без точки перехода
Параметр матрицы формата : Выборочная
Идентификатор кодека : XVID
Идентификатор кодека/Подсказка : XviD
Продолжительность : 1 ч. 16 м.
Битрейт : 2318 Кбит/сек
Ширина : 688 пикселей
Высота : 384 пикселя
Соотношение сторон : 16:9
Частота кадров : 25,000 кадров/сек
Цветовое пространство : YUV
Субдискретизация насыщенности : 4:2:0
Битовая глубина : 8 бит
Тип развёртки : Прогрессивная
Метод сжатия : С потерями
Бит/(Пиксели*Кадры) : 0.351
Размер потока : 1,25 Гбайт (85%)
Библиотека кодирования : XviD 65Аудио #1
Идентификатор : 1
Формат : AC-3
Формат/Информация : Audio Coding 3
Расширение режима : CM (complete main)
Параметр Endianness формата : Big
Идентификатор кодека : 2000
Продолжительность : 1 ч. 16 м.
Вид битрейта : Постоянный
Битрейт : 192 Кбит/сек
Каналы : 2 канала
Расположение каналов : Front: L R
Частота : 48,0 КГц
Частота кадров : 31,250 кадров/сек (1536 spf)
Метод сжатия : С потерями
Размер потока : 106 Мбайт (7%)
Выравнивание : Разделение по промежуткам
Продолжительность промежутка : 40 мс. (1,00 видеокадр)
Время предзагрузки промежутка : 500 мс.Аудио #2
Идентификатор : 2
Формат : AC-3
Формат/Информация : Audio Coding 3
Расширение режима : CM (complete main)
Параметр Endianness формата : Big
Идентификатор кодека : 2000
Продолжительность : 1 ч. 16 м.
Вид битрейта : Постоянный
Битрейт : 192 Кбит/сек
Каналы : 2 канала
Расположение каналов : Front: L R
Частота : 48,0 КГц
Частота кадров : 31,250 кадров/сек (1536 spf)
Метод сжатия : С потерями
Размер потока : 106 Мбайт (7%)
Выравнивание : Разделение по промежуткам
Продолжительность промежутка : 40 мс. (1,00 видеокадр)
Время предзагрузки промежутка : 500 мс.

Скриншот c названием фильма

Скриншоты

Трейлер

Яндекс.Метрика
Рейтинг@Mail.ru