[ Сегодня на трекере фрилич! Идет свободное скачивание без начисления Download ]

Из тьмы / The Hallow (Корин Харди / Corin Hardy) [2015 г., Ужасы, BDRip-AVC] Dub [iTunes] + Sub (Rus)

 

Создавать темы 26-Май-2016 04:51

-Из тьмы / The Hallow-- Производство: Великобритания, США, Ирландия, Altitude Film Entertainment, Altus Media (Five), Bord Scannan na hEireann / Irish Film Board, ...
Год выпуска: 2015 г.
Жанр: Ужасы
Продолжительность: 01:37:00Мировая премьера: 25 января 2015
Российская премьера: 18 февраля 2016, «Экспонента»
Перевод: Профессиональный (полное дублирование) [iTunes]
Режиссер: Корин Харди / Corin Hardy-В ролях: Джозеф Моул, Бояна Новакович, Майкл МакЭлхаттон, Гари Лайдон, Стюарт Грэхэм, Конор Крэйг Стефенс, Шон Тайрел, Билли Трэйнор-Описание: Тёмные божества, изгнанные людьми, стали лесными духами, затаились в чаще ирландских лесов, но не забыли древний договор. Молодая семья, приехавшая из Лондона, опрометчиво переступает границу запретной чащи, выпуская на волю первобытную тьму. Что захотят злые духи леса в качестве платы за вторжение? Одна ночь, чтобы спасти ребёнка, одна ночь, чтобы огнём и железом вырвать себе право на жизнь..-
Качество видео: BDRip-AVC
Контейнер: MKV
Видео кодек: MPEG4 AVC
Аудио кодек: AC3
Видео: 1024x432, 2532 Kbps, 23.976 fps
Аудио: 48 kHz, AC3, 6 ch, 384 Kbps
Cубтитры: русские
Формат субтитров: softsub (SRT)
Доп. информация о субтитрах: включаемые

Рецензия

Последняя битва ЛесаО чём-то скрытом, но подразумевающемся принято говорить, как о втором смысловом плане. В этом фильме применён отличный приём: второй смысл озвучивается открытым текстом с самого начала, но внимание зрителя сразу переключается на героев, на эмпатии к которым будет держаться сюжет на протяжении всей картины, и лишь в самом конце глобальная суть происходящего ударит обухом по голове.Нельзя не сопереживать добропорядочной интеллигентной паре и их очаровательному малышу, — в конце концов, такие типажи в жанре большая редкость. На фоне наводнивших экран ублюдочных малолетних компаний и обдолбанной молодёжи они смотрятся особенно выигрышно, это «ужас, который может случиться и с тобой». Вместо утрированных поведенческих клише здесь безыскусные эмоции, ненаигранные диалоги, довольно рациональные для такой шоковой ситуации поступки. Никакого геройства и сверхспособностей.Даже если бы других достоинств у фильма не было, за одно это можно было бы поставить положительную оценку.Но «Из тьмы» этим не ограничивается. Фильм затрагивает очень болезненный для XXI века вопрос уничтожения человеком всего живого на земле.Во время страшной ночной атаки больше всего жаль ребёнка, кажется, что цена его жизни несопоставима ни с чем, но зрелище вырубленной пустоши в конце, по сути, намного ужаснее.7 миллиардов милых и хороших по отдельности особей представляют собой самую агрессивную массу, в битве с которой безнадёжно падёт всё живое. Стремясь отвоевать себе место под солнцем, непомерно разросшееся человечество губит всю окружающую среду, и никакие чудовищные божества не в силах защитить древний Лес от железной поступи эпохи потребления.Расслабься, человек. Ужас не там, где во тьме скользят страшные с виду твари.Он в зеркале.9 из 10

Media Info

Формат : Matroska
Версия формата : Version 2
Размер файла : 2,02 Гбайт
Продолжительность : 1 ч. 36 м.
Общий поток : 2975 Кбит/сек
Дата кодирования : UTC 2016-05-25 19:21:14
Программа кодирования : mkvmerge v5.2.1 ('A Far Off Place') built on Feb 6 2012 10:08:15
Библиотека кодирования : libebml v1.2.3 + libmatroska v1.3.0
Обложка : Yes
Примечание : x264 [info]: frame I:1155 Avg QP:16.04 size: 73307 / x264 [info]: frame P:28595 Avg QP:17.56 size: 29084 / x264 [info]: frame B:109788 Avg QP:19.74 size: 8815 / x264 [info]: consecutive B-frames: 1.7% 1.5% 7.3% 15.5% 20.0% 42.6% 4.9% 3.6% 1.1% 1.8% / x264 [info]: ref P L0: 43.5% 10.3% 19.8% 7.1% 6.4% 4.0% 4.1% 2.1% 2.3% 0.5% 0.0%
Attachments : Cover
Encoded by : -=teleport2222=-
Encoding Gui : Hybrid 2014.12.05.1
Original source form/Name : Из тьмы (Первобытный страх).2015.Blu-Ray Remux http://kinozal.tv/details.php?id=1437257Видео
Идентификатор : 1
Формат : AVC
Формат/Информация : Advanced Video Codec
Профиль формата : [email protected]/* */
Параметр CABAC формата : Да
Параметр ReFrames формата : 9 кадров
Режим смешивания : Header stripping
Идентификатор кодека : V_MPEG4/ISO/AVC
Продолжительность : 1 ч. 36 м.
Битрейт : 2531 Кбит/сек
Ширина : 1024 пикселя
Высота : 432 пикселя
Соотношение сторон : 2,40:1
Режим частоты кадров : Постоянный
Частота кадров : 23,976 (24000/1001) кадра/сек
Цветовое пространство : YUV
Субдискретизация насыщенности : 4:2:0
Битовая глубина : 8 бит
Тип развёртки : Прогрессивная
Бит/(Пиксели*Кадры) : 0.239
Размер потока : 1,72 Гбайт (85%)
Библиотека кодирования : x264 core 146 r2538 121396c
Настройки программы : cabac=1 / ref=9 / deblock=1:-1:-1 / analyse=0x3:0x133 / me=umh / subme=11 / psy=1 / psy_rd=1.00:0.20 / mixed_ref=1 / me_range=32 / chroma_me=1 / trellis=2 / 8x8dct=1 / cqm=0 / deadzone=21,11 / fast_pskip=0 / chroma_qp_offset=-3 / threads=6 / lookahead_threads=1 / sliced_threads=0 / nr=0 / decimate=1 / interlaced=0 / bluray_compat=0 / constrained_intra=0 / bframes=9 / b_pyramid=2 / b_adapt=2 / b_bias=0 / direct=3 / weightb=1 / open_gop=0 / weightp=2 / keyint=250 / keyint_min=23 / scenecut=40 / intra_refresh=0 / rc_lookahead=60 / rc=crf / mbtree=0 / crf=18.8 / qcomp=0.60 / qpmin=0 / qpmax=69 / qpstep=4 / vbv_maxrate=62500 / vbv_bufsize=78125 / crf_max=0.0 / nal_hrd=none / filler=0 / ip_ratio=1.40 / pb_ratio=1.30 / aq=1:1.00
Язык : English
Default : Да
Forced : ДаАудио
Идентификатор : 2
Формат : AC-3
Формат/Информация : Audio Coding 3
Расширение режима : CM (complete main)
Параметр Endianness формата : Big
Режим смешивания : Header stripping
Идентификатор кодека : A_AC3
Продолжительность : 1 ч. 36 м.
Вид битрейта : Постоянный
Битрейт : 384 Кбит/сек
Каналы : 6 каналов
Расположение каналов : Front: L C R, Side: L R, LFE
Частота : 48,0 КГц
Частота кадров : 31,250 кадров/сек (1536 spf)
Метод сжатия : С потерями
Размер потока : 266 Мбайт (13%)
Заголовок : DUB [iTunes]
Язык : Russian
Default : Да
Forced : НетТекст
Идентификатор : 3
Формат : UTF-8
Идентификатор кодека : S_TEXT/UTF8
Идентификатор кодека/Информация : UTF-8 Plain Text
Язык : Russian
Default : Да
Forced : НетМеню
00:00:00.000 : en:00:00:00.000
00:07:50.052 : en:00:07:50.053
00:13:21.717 : en:00:13:21.718
00:20:57.088 : en:00:20:57.089
00:28:10.480 : en:00:28:10.480
00:35:01.849 : en:00:35:01.850
00:43:04.498 : en:00:43:04.499
00:49:24.503 : en:00:49:24.503
00:58:14.115 : en:00:58:14.116
01:06:17.849 : en:01:06:17.849
01:13:00.751 : en:01:13:00.751
01:20:04.757 : en:01:20:04.758
01:36:57.895 : en:01:36:57.895

Скриншот c названием фильма

Скриншоты

Трейлер

Яндекс.Метрика
Рейтинг@Mail.ru