[ Сегодня на трекере фрилич! Идет свободное скачивание без начисления Download ]

Решала 2 (Роман Асхаев) [2015, криминальная драма, WEBRip]

 

Создавать темы 25-Май-2016 16:59

--Решала 2-«Что не сделали родители-вынуждено доделывать общество»--
  • Год выпуска: 2015
  • Страна: Россия / «БайкалКино»
  • Жанр: криминальная драма
  • Продолжительность: 01:22:35
  • Перевод: Не требуется-
  • Режиссёр: Роман Асхаев-
  • В ролях: Александр Фролов, Моисей Куртанидзе, Константин Озеров, Чингиз Аздаев, Арина Есина, Руслан Балакшиев, Алина Намсараева...-
  • Продолжение истории о двух братьях. В первой части старший брат становится жертвой наемного убийцы, выручая младшего брата.
    После тех событий прошло 4 года.
    Из тюрьмы выходит Завгар - заклятый враг Решалы. И начинает поиски младшего брата - Каши, ведь именно по его наводке Завгара осудили.
    Обстановка в городе напряженная, за сферы влияния борются два криминальных авторитета. Витя Черный просит Завгара быстрее включиться в работу.
    Выжил ли Решала?
    Найдет ли Завгар Кашу, и что им, в действительности, движет?
    -
  • Премьера в России: 6 августа 2015--
  • --
  • Качество видео: WEBRip
  • Формат видео: AVI
  • Видео кодек: XviD
  • Аудио кодек: MP3
  • Видео: 640x288 (2.22:1), 25.000 fps, XviD MPEG-4, ~1047 kbps avg, 0.227 bit/pixel
  • Аудио: 48.0 kHz, MPEG Audio Layer 3, 2 ch, ~128.00 kbps avg
  • Субтитры: нет
--

Media Info

General
Complete name : W:\O.S.A.\Торренты\Завершенные торренты\ResalO.2.2O15.O.WEBRip.700Mb.avi
Format : AVI
Format/Info : Audio Video Interleave
File size : 700 MiB
Duration : 1h 22mn
Overall bit rate : 1 185 Kbps
Writing application : VirtualDubMod 1.5.10.2 (build 2540/release)
Writing library : VirtualDub build 32842/release
Video
ID : 0
Format : MPEG-4 Visual
Format profile : Advanced [email protected]
Format settings, BVOP : 2
Format settings, QPel : No
Format settings, GMC : No warppoints
Format settings, Matrix : Default (MPEG)
Codec ID : XVID
Codec ID/Hint : XviD
Duration : 1h 22mn
Bit rate : 1 047 Kbps
Width : 640 pixels
Height : 288 pixels
Display aspect ratio : 2.222
Frame rate : 25.000 fps
Color space : YUV
Chroma subsampling : 4:2:0
Bit depth : 8 bits
Scan type : Progressive
Compression mode : Lossy
Bits/(Pixel*Frame) : 0.227
Stream size : 618 MiB (88%)
Writing library : XviD 1.2.1 (UTC 2008-12-04)
Audio
ID : 1
Format : MPEG Audio
Format version : Version 1
Format profile : Layer 3
Codec ID : 55
Codec ID/Hint : MP3
Duration : 1h 22mn
Bit rate mode : Constant
Bit rate : 128 Kbps
Channel(s) : 2 channels
Sampling rate : 48.0 KHz
Compression mode : Lossy
Stream size : 75.6 MiB (11%)
Alignment : Split accross interleaves
Interleave, duration : 40 ms (1.00 video frame)
Interleave, preload duration : 500 ms
Writing library : LAME3.99r
Encoding settings : -m s -V 4 -q 2 -lowpass 17 -b 128
---- --
Яндекс.Метрика
Рейтинг@Mail.ru