Метеорит (Серии 1—8 из 8) (Александр Даруга) [2015/16, детектив, мистика, HDTVRip]

 

Создавать темы 25-Май-2016 16:32

--Метеорит--
  • Год выпуска: 2015/16
  • Страна: Россия / «Авиатор Продакшн»
  • Жанр: детектив, мистика
  • Продолжительность: 8 х ~00:45:00
  • Перевод: Не требуется-
  • Режиссёр: Александр Даруга-
  • В ролях: Константин Стрельников, Михаил Горевой, Петр Рабчевский, Максим Литовченко, Павел Кузьмин, Светлана Иванова, Анна Миклош, Дмитрий Астрахан, Юрий Ваксман...-
  • Московский опер-розыскник Жаров приезжает в захолустный город Белореческ, чтобы по заданию руководства расследовать массовое исчезновение жителей города. За последние полгода в городе бесследно исчезли 25 человек и с каждым днем количество пропавших растёт. Местные жители связывают загадочные события с падением метеорита возле старых рудников. Начальник ОВД Старовойтов представляет Жарова местным оперативникам — Гришину и Толяну, с которыми ему предстоит проводить расследование. Гришин — оперативник со стажем, который хорошо знает жителей города и к которому они частенько обращаются за помощью, причём далеко не безвозмездно. Толян — молодой опер, бывший спецназовец, который только начинает свою работу в полиции.-
  • Премьера в России: 16 января 2016 (НТВ)--
  • --
  • Качество видео: HDTVRip
  • Формат видео: AVI
  • Видео кодек: XviD
  • Аудио кодек: AC3
  • Видео: 720x400 (1.80:1), 25.000 fps, XviD MPEG-4, ~1500 kbps avg, 0.207 bit/pixel
  • Аудио: 48.0 kHz, AC3 Dolby Digital, 2/0 (L,R) ch, ~192.00 kbps avg
  • Субтитры: нет
--

Media Info

General
Complete name : W:\O.S.A.\Торренты\Завершенные торренты\Meteorit.2015.HDTVRip.Files-x\01.Meteorit.2015.HDTVRip.Files-x.avi
Format : AVI
Format/Info : Audio Video Interleave
File size : 549 MiB
Duration : 45mn 26s
Overall bit rate : 1 689 Kbps
Writing application : VirtualDubModRus 1.5.10.2 (build 2542/release)
Writing library : VirtualDubMod build 2542/release
Video
ID : 0
Format : MPEG-4 Visual
Format profile : Advanced [email protected]
Format settings, BVOP : 1
Format settings, QPel : No
Format settings, GMC : No warppoints
Format settings, Matrix : Custom
Codec ID : XVID
Codec ID/Hint : XviD
Duration : 45mn 26s
Bit rate : 1 487 Kbps
Width : 720 pixels
Height : 400 pixels
Display aspect ratio : 16:9
Frame rate : 25.000 fps
Color space : YUV
Chroma subsampling : 4:2:0
Bit depth : 8 bits
Scan type : Progressive
Compression mode : Lossy
Bits/(Pixel*Frame) : 0.207
Stream size : 483 MiB (88%)
Writing library : XviD 73
Audio
ID : 1
Format : AC-3
Format/Info : Audio Coding 3
Mode extension : CM (complete main)
Codec ID : 2000
Duration : 45mn 26s
Bit rate mode : Constant
Bit rate : 192 Kbps
Channel(s) : 2 channels
Channel positions : Front: L R
Sampling rate : 48.0 KHz
Bit depth : 16 bits
Compression mode : Lossy
Stream size : 62.4 MiB (11%)
Alignment : Split accross interleaves
Interleave, duration : 40 ms (1.00 video frame)
Interleave, preload duration : 500 ms
---- --
Яндекс.Метрика
Рейтинг@Mail.ru