На глубине (Серии 1—16 из 16) (Ярослав Мочалов) [2015/16, криминал, HDTVRip]

 

Создавать темы 25-Май-2016 16:17

--На глубине--
  • Год выпуска: 2015/16
  • Страна: Россия / «Про-Синема продакшн»
  • Жанр: криминал
  • Продолжительность: 16 х ~00:45:00
  • Перевод: Не требуется-
  • Режиссёр: Ярослав Мочалов-
  • В ролях: Алексей Гуськов, Дмитрий Ратомский, Михаил Бабичев, Полина Сидихина, Виктория Герасимова, Василий Бочкарев, Олег Тактаров, Игорь Савочкин, Сергей Астахов, Юрий Сафаров...-
  • Сформированное подразделение из резервов полиции работает под прикрытием в глубине преступной сети, разрабатывая деятельность особо опасных преступников. Во главе группы стоит человек способный в нужный момент сплотить всех членов команды и в активе которого целый набор инструментов характеризующих его, как целеустремленного и вызывающего безоговорочное доверия со стороны всех, кто его окружает. Сам по себе майор Жур непростой и, как в таких случаях бывает, неугодный для начальства. Начальство его терпеть не может за прямоту и зачастую неординарные действия по обезвреживанию бандитов. К себе в команду майор взял троих: Селима, Дениса Крылова и Алову, которую буквально «вытащил из-под земли» — раньше она работала в УВД при метрополитене. Отряд должен будет выйти на торговцев оружием, для чего Селиму придется сыграть роль одного из заказчиков. Для успешного расследования дела о похищении людей, самому Журу нужно будет «подставиться», чтобы попасть в плен к банде, которая удерживает заложника. Нелегкая роль в одной из операций по поиску наркоторговцев ждет и Алову, до работы в органах сталкивавшуюся с наркозависимостью. А внедрение в банду торговцев алмазами станет непростым испытанием для Дениса, из-за дружеских отношений с одним из преступников, пренебречь которыми оказывается не так уж легко...-
  • Премьера в России: 25 января 2016 (НТВ)--
  • --
  • Качество видео: HDTVRip
  • Формат видео: AVI
  • Видео кодек: XviD
  • Аудио кодек: AC3
  • Видео: 720x400 (1.80:1), 25.000 fps, XviD MPEG-4, ~1520 kbps avg, 0.211 bit/pixel
  • Аудио: 48.0 kHz, AC3 Dolby Digital, 2/0 (L,R) ch, ~192.00 kbps avg
  • Субтитры: нет
--

Media Info

General
Complete name : W:\O.S.A.\Торренты\Завершенные торренты\Na.glubine.2015.HDTVRip.Files-x\01.Na.glubine.2015.HDTVRip.Files-x.avi
Format : AVI
Format/Info : Audio Video Interleave
File size : 550 MiB
Duration : 44mn 44s
Overall bit rate : 1 719 Kbps
Writing application : VirtualDubMod 1.5.10.3 | www.virtualdub-fr.org || (build 2550/release)
Writing library : VirtualDubMod build 2550/release
Video
ID : 0
Format : MPEG-4 Visual
Format profile : Advanced [email protected]
Format settings, BVOP : 1
Format settings, QPel : No
Format settings, GMC : No warppoints
Format settings, Matrix : Custom
Codec ID : XVID
Codec ID/Hint : XviD
Duration : 44mn 44s
Bit rate : 1 517 Kbps
Width : 720 pixels
Height : 400 pixels
Display aspect ratio : 16:9
Frame rate : 25.000 fps
Color space : YUV
Chroma subsampling : 4:2:0
Bit depth : 8 bits
Scan type : Progressive
Compression mode : Lossy
Bits/(Pixel*Frame) : 0.211
Stream size : 485 MiB (88%)
Writing library : XviD 73
Audio
ID : 1
Format : AC-3
Format/Info : Audio Coding 3
Mode extension : CM (complete main)
Codec ID : 2000
Duration : 44mn 44s
Bit rate mode : Constant
Bit rate : 192 Kbps
Channel(s) : 2 channels
Channel positions : Front: L R
Sampling rate : 48.0 KHz
Bit depth : 16 bits
Compression mode : Lossy
Stream size : 61.4 MiB (11%)
Alignment : Split accross interleaves
Interleave, duration : 40 ms (1.00 video frame)
Interleave, preload duration : 500 ms
---- --
Яндекс.Метрика
Рейтинг@Mail.ru