Хозяева ночи / We Own the Night (Джеймс Грэй / James Gray) [2007 г., триллер, драма, криминал, HDRip] Dub [Пифагор 2007 / Лицезия]

 

Создавать темы 24-Май-2016 03:22

-Хозяева ночи / We Own the Night-- Производство: США, 2929 Productions, Columbia Pictures, Industry Entertainment, ...
Год выпуска: 2007 г.
Жанр: триллер, драма, криминал
Продолжительность: 01:57:31Мировая премьера: 25 мая 2007
Российская премьера: 10 января 2008, «Каскад»
Дата выхода DVD: 31 января 2008, «Союз-Видео»
Перевод: Профессиональный (полное дублирование) [Пифагор 2007 / Лицезия]
Режиссер: Джеймс Грэй / James Gray-В ролях: Хоакин Феникс (Bobby Green), Ева Мендес (Amada Juarez), Дэнни Хоч (Jumbo Falsetti), Алекс Видов (Vadim Nezhinski), Олег Тактаров (Pavel Lubyarsky), Доминик Колон (Freddie), Джо Д`Онофрио (Bloodied Patron), Елена Соловей (Kalina Buzhayev), Мони Мошонов (Marat Buzhayev), Марк Уолберг (Joseph Grusinsky), Мэгги Кили (Sandra Grusinsky), Пол Херман (Spiro Giavannis)
Роли дублировали: Валерий Сторожик (Bobby Green), Татьяна Шитова (Amada Juarez), Пётр Иващенко (Jumbo Falsetti), Никита Прозоровский (Vadim Nezhinski), Юрий Деркач (Pavel Lubyarsky), Александр Груздев (Marat Buzhayev), Всеволод Кузнецов (Joseph Grusinsky), Юрий Меншагин (Spiro Giavannis), Василий Бочкарев (Burt Grusinsky), Дальвин Щербаков (Michael Solo), Вячеслав Баранов (Jack Shapiro), Александр Рыжков (Police Chaplain)-Описание: 80-е годы 20-го столетия. Нью-Йорк захлестнула волна преступлений. Боссы наркомафии составляют список сотрудников местного полицейского департамента, подлежащих уничтожению. Бобби Грин - успешный управляющий популярного ночного клуба.
Его хозяин тесно связан с гангстерами, поэтому Бобби вынужден скрывать, что его родственники служат в полиции. Случайно он узнает, что первыми номерами в «расстрельном» списке идут имена его отца и брата. Чью сторону он займет в предстоящей схватке криминала и закона?-
Качество видео: HDRip
Контейнер: AVI
Видео кодек: XviD
Аудио кодек: AC3
Видео: 704x384 (1.83:1), 23.976 fps, XviD build 56 ~1380 kbps avg, 0.21 bit/pixel
Аудио: 48 kHz, AC3 Dolby Digital, 3/2 (L,C,R,l,r) + LFE ch, ~384 kbps
Cубтитры: отсутствуют

Рецензия

Казалось бы, «ну вот, американцы опять сняли фильм про русскую мафию!» Вполне стоило ожидать «развесистой клюквы», псевдорусского языка с чудовищным акцентом, а также водку, балалайку и шапку-ушанку. Но, удивительное дело, всей этой ерунды нет! А все потому, что создатели картины не делали акцента на национальную принадлежность героев, и не пытались убедить в этом зрителей при помощи деталей «русского народного быта». За что им большое спасибо. Не испортили ленту никому не нужным выпендрежем на тему понимания «загадочной русской души».«Хозяева ночи» — это качественная криминально-психологическая картина, которая понравится как многим любителям гангстерского кино, так и поклонникам фильмов о семейных ценностях. Фактически, яркая полицейско-мафиозная линия сюжета здесь лишь стержень, на который нанизана основная начинка истории, далекой, по сути своей, от криминальных разборок. Это рассказ о непростом семейном воссоединении, вследствие трагических событий, как единственного катализатора возрождения родственных чувств.Я не хочу излишне перехваливать фильм, так как это не прямо уж такая глубокая философская притча, но ничуть не сомневаюсь, что в планах режиссера не было задачи сделать очередную ленту «про реальных пацанов». «Хозяева ночи» — кино определенно из другой обоймы.Но если вы не хотите погружаться в психологию родственных отношений, то «Хозяев» вполне можно воспринять просто как крепкий жанровый фильм, благо детективная составляющая выписана внятно и увлекательно, да и экшен-сцены имеются, хотя их и не достаточно, чтобы причислить ленту к жанру «боевика».

Media Info

Формат : AVI
Формат/Информация : Audio Video Interleave
Размер файла : 1,46 Гбайт
Продолжительность : 1 ч. 57 м.
Общий поток : 1774 Кбит/сек
Название фильма : Hozyaeva Nochi.2007.[pirat.ca]
Программа кодирования : VirtualDubMod 1.5.10.2 (build 2540/release)Видео
Идентификатор : 0
Формат : MPEG-4 Visual
Профиль формата : Advanced [email protected]/* */
Параметр BVOP формата : 3
Параметр QPel формата : Нет
Параметр GMC формата : Без точки перехода
Параметр матрицы формата : Выборочная
Идентификатор кодека : XVID
Идентификатор кодека/Подсказка : XviD
Продолжительность : 1 ч. 57 м.
Битрейт : 1380 Кбит/сек
Ширина : 704 пикселя
Высота : 384 пикселя
Соотношение сторон : 1,85:1
Частота кадров : 23,976 (23976/1000) кадра/сек
Цветовое пространство : YUV
Субдискретизация насыщенности : 4:2:0
Битовая глубина : 8 бит
Тип развёртки : Прогрессивная
Метод сжатия : С потерями
Бит/(Пиксели*Кадры) : 0.213
Размер потока : 1,13 Гбайт (78%)
Библиотека кодирования : XviD 56Аудио
Идентификатор : 1
Формат : AC-3
Формат/Информация : Audio Coding 3
Расширение режима : CM (complete main)
Параметр Endianness формата : Big
Идентификатор кодека : 2000
Продолжительность : 1 ч. 57 м.
Вид битрейта : Постоянный
Битрейт : 384 Кбит/сек
Каналы : 6 каналов
Расположение каналов : Front: L C R, Side: L R, LFE
Частота : 48,0 КГц
Частота кадров : 31,250 кадров/сек (1536 spf)
Метод сжатия : С потерями
Размер потока : 323 Мбайт (22%)
Выравнивание : Разделение по промежуткам
Продолжительность промежутка : 42 мс. (1,00 видеокадр)
Время предзагрузки промежутка : 500 мс.

Скриншот c названием фильма

Скриншоты

Трейлер

Яндекс.Метрика
Рейтинг@Mail.ru