[ Сегодня на трекере фрилич! Идет свободное скачивание без начисления Download ]

Ультиматум Борна / The Bourne Ultimatum (Пол Гринграсс / Paul Greengrass) [2007 г., боевик, триллер, приключения, детектив, HDRip] Dub [Пифагор 2007 / Лицензия]

 

Создавать темы 24-Май-2016 03:17

-Ультиматум Борна / The Bourne Ultimatum-- Производство: Германия, США, Angel Studios, Bourne Agai, Ludlum Entertainment, ...
Год выпуска: 2007 г.
Жанр: боевик, триллер, приключения, детектив
Продолжительность: 01:55:19Мировая премьера: 25 июля 2007
Российская премьера: 23 августа 2007, «UPI»
Дата выхода DVD: 10 марта 2011, «ВС трейд»
Дата выхода Blu-Ray: 24 февраля 2009, «Юниверсал Пикчерс Рус»Перевод: Профессиональный (полное дублирование) [Пифагор 2007 / Лицензия]
Режиссер: Пол Гринграсс / Paul Greengrass-В ролях: Мэтт Дэймон, Джулия Стайлз, Дэвид Стрэтэйрн, Скотт Гленн, Пэдди Консидайн, Эдгар Рамирез, Альберт Финни, Джоан Аллен
Роли дублировали: Сергей Быстрицкий, Полина Щербакова, Дальвин Щербаков, Марина Бакина, Пётр Иващенко, ...-Описание: Он хотел одного — исчезнуть. Вместо этого за Борном теперь охотятся люди, которые сделали его таким, какой он есть. Он потерял память и человека, которого он любил. Но его не удается сдержать даже новому поколению профессиональных убийц. У него только одна цель: вернуться к началу и узнать кем он был, Джейсон Борн.
Он мечется от Москвы к Парижу, через Мадрид и Лондон в Танжер и Нью-Йорк, пытаясь раскрыть последние загадки своего прошлого, в то время как правительственные агенты и Интерпол пытаются помешать ему восстановить всю картину до конца.-
Качество видео: HDRip
Контейнер: AVI
Видео кодек: XviD
Аудио кодек: MP3
Видео: 688x288 (2.39:1), 23.976 fps, XviD build 50 ~764 kbps avg, 0.16 bit/pixel
Аудио: 48 kHz, MPEG Layer 3, 2 ch, ~128.00 kbps avg
Cубтитры: отсутствуют

Доп. информация

Фильм снят по мотивам романа Роберта Лэдлума «Ультиматум Борна» (The Bourne Ultimatum, 1990).
Начало фильма, а именно где Борн находится в Москве, снимали на самом деле в Берлине.
Съемочная группа фильма насчитывала 250 человек, так что при перелетах приходилось фрахтовать отдельный самолет.

Награды

Оскар, 2008 год
Победитель (3):
Лучший звук
Лучший монтаж
Лучший монтаж звука
Премия канала «MTV», 2008 год
Номинации (2):
Лучшая мужская роль (Мэтт Дэймон)
Лучшая драка
Британская академия, 2008 год
Победитель (2):
Лучший звук
Лучший монтаж
Номинации (4):
Лучший режиссер (Пол Гринграсс)
Лучшая работа оператора
Лучшие визуальные эффекты
Лучший британский фильм
Кинонаграды «MTV-Россия», 2008 год
Номинации (1):
Лучший иностранный фильм
Сатурн, 2008 год
Номинации (3):
Лучший режиссер (Пол Гринграсс)
Лучшая музыка
Лучший приключенческий фильм, боевик или триллер
Премия Гильдии актеров, 2008 год
Победитель (1):
Лучший каскадерский состав

Рецензия

- Ты хоть знаешь за что ты меня должен убить?Серия (надеюсь) благополучно закончилась, не успев испортиться. А последняя часть самая динамичная, без развития сюжета, только с нужными по сценарию бегов поворотами и логичным окончанием истории в нужное время. Там нам все рассказывают, показывают чуть-чуть, чтобы томно было. Это что преподнес сценарист.Постоянное напряжение, беспрерывная слежка и море оперативно-следственных мероприятий вперемешку с сухими (наверное, так выглядят настоящие приемы спец агентов) битвами и перестрелками вызовут у вас стойкий эффект бреда преследования. Не без нареканий — я думаю в Марокко на улицах дай бог найти хоть одну камеру, а уж следить за людьми он-лайн не реально — но все очень приятно продумано и снято; а отсутствие толп, тысяч, множеств и вообще выраженного размаха (ну окромя сети по всему миру) ведет к чувству реальности снятого. Тут даже соплям нашлось место. К актерами без претензий.В сухом остатке: шпионский фильм… не боевик, но триллер скорей, который не стоит портить сиквелом.

Media Info

Формат : AVI
Формат/Информация : Audio Video Interleave
Размер файла : 744 Мбайт
Продолжительность : 1 ч. 55 м.
Общий поток : 902 Кбит/сек
Название фильма : Ultimatum Borna.HDRip.[pirat.ca]
Программа кодирования : VirtualDubMod 1.5.10.2 (build 2540/release)Видео
Идентификатор : 0
Формат : MPEG-4 Visual
Профиль формата : Advanced [email protected]/* */
Параметр BVOP формата : 1
Параметр QPel формата : Нет
Параметр GMC формата : Без точки перехода
Параметр матрицы формата : Выборочная
Идентификатор кодека : XVID
Идентификатор кодека/Подсказка : XviD
Продолжительность : 1 ч. 55 м.
Битрейт : 765 Кбит/сек
Ширина : 688 пикселей
Высота : 288 пикселей
Соотношение сторон : 2,40:1
Частота кадров : 23,976 (23976/1000) кадра/сек
Цветовое пространство : YUV
Субдискретизация насыщенности : 4:2:0
Битовая глубина : 8 бит
Тип развёртки : Прогрессивная
Метод сжатия : С потерями
Бит/(Пиксели*Кадры) : 0.161
Размер потока : 631 Мбайт (85%)
Библиотека кодирования : XviD 1.2.1 (UTC 2008-12-04)Аудио
Идентификатор : 1
Формат : MPEG Audio
Версия формата : Version 1
Профиль формата : Layer 3
Идентификатор кодека : 55
Идентификатор кодека/Подсказка : MP3
Продолжительность : 1 ч. 55 м.
Вид битрейта : Постоянный
Битрейт : 128 Кбит/сек
Каналы : 2 канала
Частота : 48,0 КГц
Метод сжатия : С потерями
Размер потока : 106 Мбайт (14%)
Выравнивание : Соединение по промежуткам
Продолжительность промежутка : 42 мс. (1,00 видеокадр)
Время предзагрузки промежутка : 504 мс.
Библиотека кодирования : LAME3.97
Настройки программы : -m s -V 4 -q 2 -lowpass 17 -b 128

Скриншот c названием фильма

Скриншоты

Трейлер

Яндекс.Метрика
Рейтинг@Mail.ru