Вампирша / Rise / Rise: Blood Hunter (Себастьян Гутиеррес / Sebastian Gutierrez) [2006 г., ужасы, боевик, триллер, детектив, BDRip] Dub [Пифагор 2007 / Лицензия]

 

Создавать темы 24-Май-2016 03:10

-Вампирша / Rise / Rise: Blood Hunter-- Производство: США, Новая Зеландия, Destination Films, Ghost House Pictures, Kingsgate Films, Mandate Pictures, Rise Productions, ...
Год выпуска: 2006 г.
Жанр: ужасы, боевик, триллер, детектив
Продолжительность: 01:33:30Мировая премьера: 28 апреля 2007
Российская премьера: 16 августа 2007, «West»
Дата выхода DVD: 17 марта 2008, «West Video»
Перевод: Профессиональный (полное дублирование) [Пифагор 2007 / Лицензия]
Режиссер: Себастьян Гутиеррес / Sebastian Gutierrez-В ролях: Роберт Форстер, Кэмерон Ричардсон, Люси Лью, Аллан Рич, Саманта Шелтон, Кевин Уитли, Марго Харшман, Камерон Гудман, Холт МакКэллани, Джеймс Д’Арси
Роли дублировали: Ольга Зверева, Илья Бледный, Ольга Зубкова, Жанна Никонова, Максим Пинскер, ...-Описание: Молодая журналистка Сэди пытается выяснить, почему в их городе случаются странные и страшные кровавые убийства. Вампиры, которые являются прямыми участниками этих убийств, решают, что она слишком глубоко засунула свой нос в их дела. Поймав девушку, они кусают ее…
Ночью Сэди просыпается в морге и обнаруживает на шее следы укусов. Понимая, что стала вампиршей, она клянется отомстить тем, кто превратил ее в кровопийцу, и пускается по следу упырей, пересекаясь с детективом Роулинсом, чья дочь была убита той же бандой.-
Качество видео: BDRip
Контейнер: AVI
Видео кодек: XviD
Аудио кодек: AC3
Видео: 720x400 (1.80:1), 25 fps, XviD build 50 ~1830 kbps avg, 0.25 bit/pixel
Аудио: 48 kHz, AC3 Dolby Digital, 3/2 (L,C,R,l,r) + LFE ch, ~384 kbps
Cубтитры: отсутствуют

Рецензия

А мне почти понравилосьНикогда не читаю рецензии к фильму до просмотра фильма и написания своей, дабы чужие мнения не наложились на моё восприятия, так если где-то повторюсь, то прошу прощения.Фильм «Вампирша», на самом деле, правильнее было бы «воскресшая», ибо героиня вынужденно ассоциировала себя с этой нечистью, казалось бы, довольно-таки предсказуемый и банальный. Сначала правда подумалось что с настоящими вампирами связи никакой нет и «Вампирша» — лишь некая аллегория. Ан нет — через несколько минут течения фильма узнаём, что мистика имеет место. О чём же фильм? Об очень смелой журналистке, которая в поисках жареных фактов вышла на странную секту, а далее — см. «Интервью с вампиром» + «Терминатор — II». Казалось бы фильм неинтересен и ни о чём, если бы не несколько «за»:а) По задумке авторов фильм протекает как-то обыденно и даже спокойно. Нет тут такого экшена, как в «Блэйде» — никаких сгорающих на лету скелетов и пр. И на свету спокойно вампиры себя чувствуют, разве что в зеркале не видятся себя и серебро не уважают. Это подкупило (хотя, может бюджет не позволил?).б) игра Люси Лью. Ну вот актриса, мне кажется, даже особо не напрягалась, так гармонично у неё всё получалось, приятно было смотреть, очень талантливая. Для любителей даже фрагменты голого тела её были. Скажу больше — взяли бы на эту роль другую актрису — фильму провал.в) нескучно смотрится фильм. Да, без интриги почти, да, кто-то где-то недоиграл, но смотрибельность нормальная.Минусов — много, но главный для меня: ну чёрт побери, как убедителен главный злодей что быть вампиром это круто ("кому нужны педофилы и сбежавшие из дому подростки» — про педофилов согласен, но пока их поймаешь — с голоду помрёшь), и какие слабые аргументы у «светлой» стороны, да любой в этом вечном поединке остался бы на стороне зла. И ещё: ну какого хрена никто никогда, в нужные моменты не звонит в полицию — звонят папам, разбираются сами, дуют в вувузелы — только не копы. Почему?Итого: рецензия нейтральная, фильм для убийства одинокого вечера вполне подходит, хоть и надолго не запомнится, итого:6 из 10

Media Info

Формат : AVI
Формат/Информация : Audio Video Interleave
Размер файла : 1,45 Гбайт
Продолжительность : 1 ч. 33 м.
Общий поток : 2224 Кбит/сек
Название фильма : Rise.2007.BDRip.[pirat.ca]
Программа кодирования : VirtualDubMod 1.5.10.2 (build 2540/release)Видео
Идентификатор : 0
Формат : MPEG-4 Visual
Профиль формата : Advanced [email protected]/* */
Параметр BVOP формата : 1
Параметр QPel формата : Нет
Параметр GMC формата : Без точки перехода
Параметр матрицы формата : Выборочная
Идентификатор кодека : XVID
Идентификатор кодека/Подсказка : XviD
Продолжительность : 1 ч. 33 м.
Битрейт : 1830 Кбит/сек
Ширина : 720 пикселей
Высота : 400 пикселей
Соотношение сторон : 16:9
Частота кадров : 25,000 кадров/сек
Цветовое пространство : YUV
Субдискретизация насыщенности : 4:2:0
Битовая глубина : 8 бит
Тип развёртки : Прогрессивная
Метод сжатия : С потерями
Бит/(Пиксели*Кадры) : 0.254
Размер потока : 1,20 Гбайт (82%)
Библиотека кодирования : XviD 1.2.1 (UTC 2008-12-04)Аудио
Идентификатор : 1
Формат : AC-3
Формат/Информация : Audio Coding 3
Расширение режима : CM (complete main)
Параметр Endianness формата : Big
Идентификатор кодека : 2000
Продолжительность : 1 ч. 33 м.
Вид битрейта : Постоянный
Битрейт : 384 Кбит/сек
Каналы : 6 каналов
Расположение каналов : Front: L C R, Side: L R, LFE
Частота : 48,0 КГц
Частота кадров : 31,250 кадров/сек (1536 spf)
Метод сжатия : С потерями
Размер потока : 257 Мбайт (17%)
Выравнивание : Разделение по промежуткам
Продолжительность промежутка : 40 мс. (1,00 видеокадр)
Время предзагрузки промежутка : 500 мс.

Скриншот c названием фильма

Скриншоты

Трейлер

Яндекс.Метрика
Рейтинг@Mail.ru