Настоящие (Серии 1—8 из 8) (Евгений Звездаков) [2011, криминал, детектив, DVDRip]

 

Создавать темы 23-Май-2016 08:10

--Настоящие--
  • Год выпуска: 2011
  • Страна: Россия / «Всемирные Русские Студии»
  • Жанр: криминал, детектив
  • Продолжительность: 8 х ~00:47:00
  • Перевод: Не требуется-
  • Режиссёр: Евгений Звездаков-
  • В ролях: Сергей Маховиков, Алексей Макаров, Александр Большаков, Светлана Антонова, Владимир Епифанцев, Игорь Скляр, Сергей Юшкевич, Кристина Кузьмина, Александр Вонтов, Юрий Беляев...-
  • В пограничном портовом городе бандиты планируют захватить власть. Город может стать «окном» для торговли оружием и наркотиками. Для реализации своего плана на ближайших выборах бандитская группировка выставляет своего кандидата в мэры. Их конкуренты, властные структуры, ведут к победе своего кандидата. Чтобы разрушить планы бандитов, они засылают в группировку шпиона, опытного опера Вестникова...-
  • Премьера в России: 3 октября 2011 (Рен-ТВ)--
  • --
  • Качество видео: DVDRip
  • Формат видео: AVI
  • Видео кодек: XviD
  • Аудио кодек: AC3
  • Видео: 720x400 (1.80:1), 25.000 fps, XviD MPEG-4, ~1850 kbps avg, 0.257 bit/pixel
  • Аудио: 48.0 kHz, AC3 Dolby Digital, 2/0 (L,R) ch, ~192.00 kbps avg
  • Субтитры: нет
--

Media Info

General
Complete name :W:\O.S.A.\Торренты\Завершенные торренты\Настоящие DVDRip\Настоящие. 01.avi
Format : AVI
Format/Info : Audio Video Interleave
File size : 702 MiB
Duration : 47mn 51s
Overall bit rate : 2 052 Kbps
Writing library : VirtualDub build 34753/release
Video
ID : 0
Format : MPEG-4 Visual
Format profile : Advanced [email protected]
Format settings, BVOP : 2
Format settings, QPel : No
Format settings, GMC : No warppoints
Format settings, Matrix : Default (H.263)
Muxing mode : Packed bitstream
Codec ID : XVID
Codec ID/Hint : XviD
Duration : 47mn 51s
Bit rate : 1 850 Kbps
Width : 720 pixels
Height : 400 pixels
Display aspect ratio : 16:9
Frame rate : 25.000 fps
Color space : YUV
Chroma subsampling : 4:2:0
Bit depth : 8 bits
Scan type : Interlaced
Scan order : Top Field First
Compression mode : Lossy
Bits/(Pixel*Frame) : 0.257
Stream size : 633 MiB (90%)
Writing library : XviD 64
Audio
ID : 1
Format : AC-3
Format/Info : Audio Coding 3
Mode extension : CM (complete main)
Codec ID : 2000
Duration : 47mn 51s
Bit rate mode : Constant
Bit rate : 192 Kbps
Channel(s) : 2 channels
Channel positions : Front: L R
Sampling rate : 48.0 KHz
Bit depth : 16 bits
Compression mode : Lossy
Stream size : 65.7 MiB (9%)
Alignment : Aligned on interleaves
Interleave, duration : 40 ms (1.00 video frame)
Interleave, preload duration : 512 ms
---- --
Яндекс.Метрика
Рейтинг@Mail.ru