[ Сегодня на трекере фрилич! Идет свободное скачивание без начисления Download ]

Опасная любовь (Серии 1—4 из 4) (Кирилл Капица) [2014, боевик, WEBRip-AVC]

 

Создавать темы 22-Май-2016 21:37

--Опасная любовь--
  • Год выпуска: 2014
  • Страна: Россия / «Star Media»
  • Жанр: боевик
  • Продолжительность: 4 х ~00:44:00
  • Перевод: Не требуется-
  • Режиссёр: Кирилл Капица-
  • В ролях: Игорь Лифанов, Кирилл Капица, Игорь Петрусенко, Ада Роговцева, Анна Сырбу, Сергей Воробьёв, Владимир Щербаков, Сергей Деревянко, Владимир Осадчий, Вячеслав Довженко...-
  • Банда Ивана Золотарева грабит только нечестных на руку бизнесменов, зарабатывающих свои деньги при помощи криминала. Члены банды считают себя современными "робингудами", они не просто грабят, а придумывают целое театральное действие, откровенно развлекаясь. У них есть принцип: никаких убийств ни при каких обстоятельствах. Иван - хитрый и смекалистый бандит, благодаря его выдумкам и осторожности, полиция никак не может напасть на их след. Но однажды случился сбой в налаженной схеме. При ограблении бизнесмена один из членов банды застрелил телохранителя. В банде начался разлад...
    Дальше-больше. Пропали деньги, принадлежавшие мафии, контролирующей продажу оружия в регионе. Ивану поручено найти их. И тут на пути банды оказывается женщина...
    -
  • Премьера в России: 27 апреля 2014 (НТВ)--
  • --
  • Качество видео: WEBRip-AVC
  • Формат видео: MKV
  • Видео кодек: H.264
  • Аудио кодек: AC3
  • Видео: 1024x576 (1.80:1), 25.000 fps, MPEG-4 AVC, ~2000 kbps avg, 0.136 bit/pixel
  • Аудио: 48.0 kHz, AC3 Dolby Digital, 2/0 (L,R) ch, ~192.00 kbps avg
  • Субтитры: нет
--

Media Info

General
Unique ID : 190994382154317917771691087496160233658 (0x8FB02E132C93C0B3A6A866658FA448BA)
Complete name : W:\O.S.A.\Торренты\Завершенные торренты\Опасная любовь WEBRip AVC\Опасная любовь 01_серия_WEBRip_AVC.mkv
Format : Matroska
File size : 687 MiB
Duration : 44mn 0s
Overall bit rate : 2 181 Kbps
Movie name : Opasnaya.lyubov.(01.seriya.iz.04).2014.WEB-DLRip.(AVC)
Encoded date : UTC 2014-04-28 07:22:33
Writing application : mkvmerge v6.3.0 ('You can't stop me!') built on Jun 28 2013 20:09:41
Writing library : libebml v1.3.0 + libmatroska v1.4.0
Video
ID : 1
Format : AVC
Format/Info : Advanced Video Codec
Format profile : [email protected]
Format settings, CABAC : Yes
Format settings, ReFrames : 2 frames
Codec ID : V_MPEG4/ISO/AVC
Duration : 44mn 0s
Bit rate mode : Constant
Bit rate : 2 000 Kbps
Width : 1 024 pixels
Height : 576 pixels
Display aspect ratio : 16:9
Frame rate : 25.000 fps
Color space : YUV
Chroma subsampling : 4:2:0
Bit depth : 8 bits
Scan type : Progressive
Bits/(Pixel*Frame) : 0.136
Stream size : 612 MiB (89%)
Audio
ID : 2
Format : AC-3
Format/Info : Audio Coding 3
Mode extension : CM (complete main)
Codec ID : A_AC3
Duration : 44mn 0s
Bit rate mode : Constant
Bit rate : 192 Kbps
Channel(s) : 2 channels
Channel positions : Front: L R
Sampling rate : 48.0 KHz
Bit depth : 16 bits
Compression mode : Lossy
Stream size : 60.4 MiB (9%)
Language : Russian
---- --
Яндекс.Метрика
Рейтинг@Mail.ru