Законы улиц (Серии 1—24 из 24) (Рустам Уразаев) [2014/16, криминал, HDTVRip]

 

Создавать темы 22-Май-2016 20:56

--Законы улиц--
  • Год выпуска: 2014/16
  • Страна: Россия / «Форвард-фильм»
  • Жанр: криминал
  • Продолжительность: 24 х ~00:45:00
  • Перевод: Не требуется-
  • Режиссёр: Рустам Уразаев-
  • В ролях: Владимир Фекленко, Максим Щёголев, Денис Рожков, Иван Соловьёв, Дмитрий Горевой, Сергей Мурзин, Евгения Соляных, Николай Козак, Андрей Белозеров, Елена Коллегова...-
  • Их рабочий день начинается с прихода в ОВД, а закончиться может когда и как угодно. Может быть, как положено, в 6 часов вечера, может значительно позже, если случилось что-то серьезное, а может и не закончится вообще, если в районе случилось ЧП. Здесь нет преступлений с мировым резонансом, которые может распутать только гениальный сыщик. Раскрытие каждого преступления, как и само преступление, реальны. Четверо оперативников из ОВД №3 - Богун, Стешин, Макаркин и Осипов такие же люди, как и мы, просто работу они выбрали чуть более сложную и опасную, и их задача – выжить, постараться отработать один день и вернуться домой, а еще – хоть как-то умудриться успеть заняться и своей личной жизнью. Каждая серия – это маленькая трагедия или трагикомедия жителей города, участниками которой по долгу службы стали герои.-
  • Премьера в России: 4 мая 2016 (НТВ)--
  • --
  • Качество видео: HDTVRip
  • Формат видео: AVI
  • Видео кодек: XviD
  • Аудио кодек: MP3
  • Видео: 688x384 (1.80:1), 25.000 fps, XviD MPEG-4, ~1020 kbps avg, 0.153 bit/pixel
  • Аудио: 48.0 kHz, MPEG Audio Layer 3, 2 ch, ~128.00 kbps avg
  • Субтитры: нет
--

Media Info

General
Complete name : W:\O.S.A.\Торренты\Завершенные торренты\Zakony.Ulic.2016.XviD.HDTVRip.by.GeneralFilm\Serija.01.avi
Format : AVI
Format/Info : Audio Video Interleave
File size : 371 MiB
Duration : 45mn 4s
Overall bit rate : 1 150 Kbps
Writing application : VirtualDubMod 1.5.10.3 | www.virtualdub-fr.org || (build 2550/release)
Writing library : VirtualDubMod build 2550/release
Video
ID : 0
Format : MPEG-4 Visual
Format profile : Advanced [email protected]
Format settings, BVOP : 1
Format settings, QPel : No
Format settings, GMC : No warppoints
Format settings, Matrix : Custom
Codec ID : XVID
Codec ID/Hint : XviD
Duration : 45mn 4s
Bit rate : 1 013 Kbps
Width : 688 pixels
Height : 384 pixels
Display aspect ratio : 16:9
Frame rate : 25.000 fps
Color space : YUV
Chroma subsampling : 4:2:0
Bit depth : 8 bits
Scan type : Progressive
Compression mode : Lossy
Bits/(Pixel*Frame) : 0.153
Stream size : 327 MiB (88%)
Writing library : XviD 73
Audio
ID : 1
Format : MPEG Audio
Format version : Version 1
Format profile : Layer 3
Codec ID : 55
Codec ID/Hint : MP3
Duration : 45mn 4s
Bit rate mode : Constant
Bit rate : 128 Kbps
Channel(s) : 2 channels
Sampling rate : 48.0 KHz
Compression mode : Lossy
Stream size : 41.3 MiB (11%)
Alignment : Aligned on interleaves
Interleave, duration : 40 ms (1.00 video frame)
Interleave, preload duration : 504 ms
Writing library : LAME3.99r
Encoding settings : -m s -V 4 -q 0 -lowpass 17 -b 128
---- --
Яндекс.Метрика
Рейтинг@Mail.ru