Близнецы - драконы (Полная китайская версия) / Shuang Long Hui (HK Full Version) (Ринго Лам, Цуй Харк) [1992, боевик, комедия, BDRip] MVO

 

Создавать темы 22-Май-2016 13:53

--Близнецы - драконы / Shuang Long Hui-«Два Джеки Чана лучше, чем один!»--
  • Год выпуска: 1992
  • Страна: Гонконг / Dimension Films, Golden Way Films Ltd., Hong Kong Film Directors Guild
  • Жанр: боевик, комедия
  • Продолжительность: 01:44:42
  • Перевод: Профессиональный (многоголосый закадровый)-
  • Режиссёр: Ринго Лам, Цуй Харк-
  • В ролях: Джеки Чан, Мэгги Чун, Тедди Робин Кван, Энтони Чан, Филип Чань, Сильвия Чан, Альфред Чун, Чи Люн «Джэйкоб» Чунг, Танг Чо «Джо» Чунг, Дэвид Чианг...-
  • Джеки Чан исполняет сразу две роли — двух абсолютно одинаковых близнецов, разлученных при рождении и оказавшихся в разных семьях и по разные стороны Тихого океана.
    Один из близнецов — специалист по боевым искусствам, хулиган и задира, работает автомехаником в гараже отеля, в котором останавливается во время гастролей в Гонконге другой — знаменитый музыкант всемирно известный дирижер из Нью-Йорка. Когда они случайно встречаются, начинается невероятная заварушка!
    -
  • Премьера в мире: 15 января 1992--
  • --
  • Качество видео: BDRip
  • Формат видео: AVI
  • Видео кодек: XviD
  • Аудио кодек: AC3
  • Видео: 720x304 (2.35:1), 23.976 fps, XviD MPEG-4, ~1798 kbps avg, 0.343 bit/pixel
  • Аудио: 48.0 kHz, AC3 Dolby Digital, 2/0 (L,R) ch, ~192.00 kbps avg
  • Субтитры: нет
--

Media Info

General
Complete name : W:\O.S.A.\Торренты\Завершенные торренты\Twin Dragons.1992.BD-Rip.XviD.1,46Gb.AC3..avi
Format : AVI
Format/Info : Audio Video Interleave
File size : 1.46 GiB
Duration : 1h 44mn
Overall bit rate : 2 000 Kbps
Writing application : VirtualDubMod 1.5.10.3 | www.virtualdub-fr.org || (build 2550/release)
Writing library : VirtualDubMod build 2550/release
Video
ID : 0
Format : MPEG-4 Visual
Format profile : Advanced [email protected]
Format settings, BVOP : 1
Format settings, QPel : No
Format settings, GMC : No warppoints
Format settings, Matrix : Custom
Codec ID : XVID
Codec ID/Hint : XviD
Duration : 1h 44mn
Bit rate : 1 798 Kbps
Width : 720 pixels
Height : 304 pixels
Display aspect ratio : 2.35:1
Frame rate : 23.976 fps
Color space : YUV
Chroma subsampling : 4:2:0
Bit depth : 8 bits
Scan type : Progressive
Compression mode : Lossy
Bits/(Pixel*Frame) : 0.343
Stream size : 1.32 GiB (90%)
Writing library : XviD 65
Audio
ID : 1
Format : AC-3
Format/Info : Audio Coding 3
Mode extension : CM (complete main)
Codec ID : 2000
Duration : 1h 44mn
Bit rate mode : Constant
Bit rate : 192 Kbps
Channel(s) : 2 channels
Channel positions : Front: L R
Sampling rate : 48.0 KHz
Bit depth : 16 bits
Compression mode : Lossy
Stream size : 144 MiB (10%)
Alignment : Split accross interleaves
Interleave, duration : 42 ms (1.00 video frame)
Interleave, preload duration : 500 ms
---- --
Яндекс.Метрика
Рейтинг@Mail.ru