[ Сегодня на трекере фрилич! Идет свободное скачивание без начисления Download ]

Последний ход королевы (2015) WEB-DLRip [H.264/720p-LQ] (серии 1-4 из 4)

 

Создавать темы 21-Май-2016 23:41

-Последний ход королевы (2015) WEB-DLRip [H.264/720p-LQ] (серии 1-4 из 4)- Производство: Россия / ПК "Леандра", "Эшелон Фильм"
Жанр: мелодрама
Режиссер: Игорь Драка
Актеры: Вера Шпак, Иван Оганесян, Кира Кауфман, Михаил Тарабукин, Елена Мартыненко, Кирилл Осьмов, Анастасия Рубова и др.
Описание:
Настя живет со старенькой бабушкой, руководит небольшой строительной фирмой и больше всего на свете мечтает усыновить детдомовца Даню, к которому очень привязалась. Но, оказывается, на Даню претендует другая семья: журналист Вишняков и его жена-телеведущая, оба успешные состоятельные люди. Неудивительно, что Даню скорее отдадут им, чем одинокой и неудачливой в бизнесе Насте. В довершение всех бед ей то и дело звонит какой-то шутник, который разговаривает детскими прибаутками и считалками: «Тили-тили-тесто, играем в королевство!» Все это доводит героиню до отчаяния, и вдруг — нежданный подарок судьбы! — ей предлагают крупный и дорогой заказ на строительство социального поселка «Соколики» для малообеспеченных семей. Недоумевая, почему известный подрядчик Зотов выбрал именно ее захудалую фирму, Настя с радостью берется за работу, надеясь выправить свое финансовое положение и отвоевать Даню.-Продолжительность: ~00:45:00 серия
Качество видео: WEB-DLRip
Видео: AVC/H.264, 1280х720 (16:9), ~2500 kbps
Аудио: AC3, 2 ch, 192 kbps, CBR

Mediainfo:

Общее
Уникальный идентификатор                 : 246480598879544398680896120757248626354 (0xB96E6FC59FE2A479A7963751AA088EB2)
Полное имя                               : F:\DOWNLOADS\Последний ход королевы (2015) WEB-DLRip 720\Последний ход королевы - 01 серия.mkv
Формат                                   : Matroska
Версия формата                           : Version 2
Размер файла                             : 875 Мбайт
Продолжительность                        : 44 м.
Общий поток                              : 2755 Кбит/сек
Дата кодирования                         : UTC 2016-05-21 16:24:18
Программа кодирования                    : mkvmerge v7.8.0 ('River Man') 32bit built on Apr  3 2015 12:11:22
Библиотека кодирования                   : libebml v1.3.1 + libmatroska v1.4.2
Видео
Идентификатор                            : 1
Формат                                   : AVC
Формат/Информация                        : Advanced Video Codec
Профиль формата                          : [email protected]
Параметр CABAC формата                   : Да
Параметр ReFrames формата                : 4 кадра
Идентификатор кодека                     : V_MPEG4/ISO/AVC
Продолжительность                        : 44 м.
Битрейт                                  : 2569 Кбит/сек
Ширина                                   : 1280 пикселей
Высота                                   : 720 пикселей
Соотношение сторон                       : 16:9
Режим частоты кадров                     : Постоянный
Частота кадров                           : 25,000 кадров/сек
Цветовое пространство                    : YUV
Субдискретизация насыщенности            : 4:2:0
Битовая глубина                          : 8 бит
Тип развёртки                            : Прогрессивная
Бит/(Пиксели*Кадры)                      : 0.112
Размер потока                            : 797 Мбайт (91%)
Библиотека кодирования                   : x264 core 142
Настройки программы                      : cabac=1 / ref=3 / deblock=1:0:0 / analyse=0x3:0x113 / me=hex / subme=7 / psy=1 / psy_rd=1.00:0.00 / mixed_ref=1 / me_range=16 / chroma_me=1 / trellis=1 / 8x8dct=1 / cqm=0 / deadzone=21,11 / fast_pskip=1 / chroma_qp_offset=-2 / threads=36 / lookahead_threads=5 / sliced_threads=0 / nr=0 / decimate=1 / interlaced=0 / bluray_compat=0 / constrained_intra=0 / bframes=6 / b_pyramid=2 / b_adapt=1 / b_bias=0 / direct=1 / weightb=1 / open_gop=0 / weightp=2 / keyint=200 / keyint_min=20 / scenecut=0 / intra_refresh=0 / rc_lookahead=40 / rc=2pass / mbtree=1 / bitrate=2569 / ratetol=1.0 / qcomp=0.60 / qpmin=0 / qpmax=69 / qpstep=4 / cplxblur=20.0 / qblur=0.5 / vbv_maxrate=3854 / vbv_bufsize=10279 / nal_hrd=none / filler=0 / ip_ratio=1.40 / aq=1:1.00
Язык                                     : English
Default                                  : Да
Forced                                   : Нет
Аудио
Идентификатор                            : 2
Формат                                   : AC-3
Формат/Информация                        : Audio Coding 3
Расширение режима                        : CM (complete main)
Параметр Endianness формата              : Big
Идентификатор кодека                     : A_AC3
Продолжительность                        : 44 м.
Вид битрейта                             : Постоянный
Битрейт                                  : 192 Кбит/сек
Каналы                                   : 2 канала
Расположение каналов                     : Front: L R
Частота                                  : 48,0 КГц
Частота кадров                           : 31,250 кадров/сек (1536 spf)
Метод сжатия                             : С потерями
Размер потока                            : 61,0 Мбайт (7%)
Default                                  : Да
Forced                                   : Нет
Скриншоты:
Яндекс.Метрика
Рейтинг@Mail.ru