Последний ход королевы (2015) WEB-DLRip (серии 1-4 из 4)

 

Создавать темы 21-Май-2016 23:39

-Последний ход королевы (2015) WEB-DLRip (серии 1-4 из 4)- Производство: Россия / ПК "Леандра", "Эшелон Фильм"
Жанр: мелодрама
Режиссер: Игорь Драка
Актеры: Вера Шпак, Иван Оганесян, Кира Кауфман, Михаил Тарабукин, Елена Мартыненко, Кирилл Осьмов, Анастасия Рубова и др.
Описание:
Настя живет со старенькой бабушкой, руководит небольшой строительной фирмой и больше всего на свете мечтает усыновить детдомовца Даню, к которому очень привязалась. Но, оказывается, на Даню претендует другая семья: журналист Вишняков и его жена-телеведущая, оба успешные состоятельные люди. Неудивительно, что Даню скорее отдадут им, чем одинокой и неудачливой в бизнесе Насте. В довершение всех бед ей то и дело звонит какой-то шутник, который разговаривает детскими прибаутками и считалками: «Тили-тили-тесто, играем в королевство!» Все это доводит героиню до отчаяния, и вдруг — нежданный подарок судьбы! — ей предлагают крупный и дорогой заказ на строительство социального поселка «Соколики» для малообеспеченных семей. Недоумевая, почему известный подрядчик Зотов выбрал именно ее захудалую фирму, Настя с радостью берется за работу, надеясь выправить свое финансовое положение и отвоевать Даню.
[img]https://www.kinopoisk.ru/rating/916132.gif[/img]
Продолжительность: ~00:45:00 серия
Качество видео: WEB-DLRip
Видео: XVID, 720х400 (16:9), ~1800 kbps
Аудио: AC3, 2 ch, 192 kbps, CBR

Mediainfo:

Общее
Полное имя                               : F:\DOWNLOADS\Последний ход королевы (2015) WEB-DLRip\Последний ход королевы - 01 серия.avi
Формат                                   : AVI
Формат/Информация                        : Audio Video Interleave
Размер файла                             : 637 Мбайт
Продолжительность                        : 44 м.
Общий поток                              : 2002 Кбит/сек
Программа кодирования                    : VirtualDubMod 1.5.10.3 | [url=http://www.virtualdub-fr.org]www.virtualdub-fr.org[/url] || (build 2550/release)
Библиотека кодирования                   : VirtualDubMod build 2550/release
Видео
Идентификатор                            : 0
Формат                                   : MPEG-4 Visual
Профиль формата                          : Advanced [email protected]
Параметр BVOP формата                    : 1
Параметр QPel формата                    : Нет
Параметр GMC формата                     : Без точки перехода
Параметр матрицы формата                 : Default (MPEG)
Идентификатор кодека                     : XVID
Идентификатор кодека/Подсказка           : XviD
Продолжительность                        : 44 м.
Битрейт                                  : 1800 Кбит/сек
Ширина                                   : 720 пикселей
Высота                                   : 400 пикселей
Соотношение сторон                       : 16:9
Частота кадров                           : 25,000 кадров/сек
Цветовое пространство                    : YUV
Субдискретизация насыщенности            : 4:2:0
Битовая глубина                          : 8 бит
Тип развёртки                            : Прогрессивная
Метод сжатия                             : С потерями
Бит/(Пиксели*Кадры)                      : 0.250
Размер потока                            : 573 Мбайт (90%)
Библиотека кодирования                   : XviD 73
Аудио
Идентификатор                            : 1
Формат                                   : AC-3
Формат/Информация                        : Audio Coding 3
Расширение режима                        : CM (complete main)
Параметр Endianness формата              : Big
Идентификатор кодека                     : 2000
Продолжительность                        : 44 м.
Вид битрейта                             : Постоянный
Битрейт                                  : 192 Кбит/сек
Каналы                                   : 2 канала
Расположение каналов                     : Front: L R
Частота                                  : 44,1 КГц
Частота кадров                           : 28,711 кадров/сек (1536 spf)
Метод сжатия                             : С потерями
Размер потока                            : 61,1 Мбайт (10%)
Выравнивание                             : Разделение по промежуткам
Продолжительность промежутка             : 40  мс. (1,00 видеокадр)
Время предзагрузки промежутка            : 500  мс.
Скриншоты:
Яндекс.Метрика
Рейтинг@Mail.ru