[ Сегодня на трекере фрилич! Идет свободное скачивание без начисления Download ]

Пёс (Серии 1—20 из 20) (Николай Каптан, Игорь Забара) [2015/16, криминал, HDTVRip]

 

Создавать темы 21-Май-2016 09:06

--Пёс--
  • Год выпуска: 2015/16
  • Страна: Украина / «PRO-TV»
  • Жанр: криминал
  • Продолжительность: 20 х ~00:50:00
  • Язык: Русский-
  • Режиссёр: Николай Каптан, Игорь Забара-
  • В ролях: Никита Панфилов, Андрей Саминин, Михаил Жонин, Ольга Олексий, Денис Роднянский, Светлана Зельбет, Ольга Морозова, Тарас Мельничук, Автандил Бежиашвили, Илья Прокопив...-
  • У полицейского Максима Максимова за плечами много раскрытых преступлений. На службе он на хорошем счету, а вот личная жизнь не складывается: жена ушла к его лучшему другу и коллеге Леонидову. И, как известно, беда не приходит одна: во время очередного дела Максима подставляют. Он — еще недавно лучший сыщик в городе — остается без работы, друзей, денег и начинает пить.
    Однажды ему приходит сообщение от бывшего шефа и тестя Жарова. Максим приезжает к нему домой и оказывается на месте преступления. Тело убитого родственника охраняет раненная овчарка, прибывшие оперативники предлагают застрелить собаку, но Максим забирает пса к себе домой. Вместе с новым другом по кличке Пёс бывший полицейский начинает вести собственные расследования, первое из которых — загадочное убийство Жарова...
    -
  • Премьера в Украине: 1 сентября 2015 (ICTV); Премьера в России: 16 мая 2016 (НТВ)--
  • --
  • Качество видео: HDTVRip
  • Формат видео: AVI
  • Видео кодек: XviD
  • Аудио кодек: MP3
  • Видео: 704x400 (1.76:1), 25.000 fps, XviD MPEG-4, ~1200 kbps avg, 0.170 bit/pixel
  • Аудио: 48.0 kHz, MPEG Audio Layer 3, 2 ch, ~128.00 kbps avg
  • Субтитры: нет
--

Внимание ! Раздача ведётся путём добавления новых серий !!!

Внимание! Раздача ведётся путём добавления новых серий; при каждом добавлении создаётся новый торрент. Чтобы начать докачку новой серии, пользователям необходимо сделать следующее:
(1) остановить скачивание,раздачу,
(2) удалить старый торрент у себя из клиента (старые серии удалять не надо),
(3) скачать новый торрент и запустить его у себя в клиенте вместо старого, при этом указать клиенту путь в старую папку куда и должно происходить скачивание новых серий.
Ваш клиент при этом должен произвести хеширование (проверку) старой папки (если не производит сами - помогите ему сделать это), и будет докачивать только те серии которых у вас ещё нет. Старые серии при этом не удаляются, а продолжают раздаваться!
Eсли вы уже удалили старые серии, то предотвратить повторную закачку старых серий можно, отжав галочку в соответствующих местах при запуске нового торрента. По возможности, желательно не удалять старые серии как можно дольше чтобы релизёр не столько продолжал раздавать старые серии, а смог сконцентрироваться на новых.

Media Info

General
Complete name : W:\O.S.A.\Торренты\Завершенные торренты\Pes.2015.XviD.HDTVRip.by.GeneralFilm\Serija.01.avi
Format : AVI
Format/Info : Audio Video Interleave
File size : 444 MiB
Duration : 46mn 32s
Overall bit rate : 1 335 Kbps
Writing application : VirtualDubMod 1.5.10.3 | www.virtualdub-fr.org || (build 2550/release)
Writing library : VirtualDubMod build 2550/release
Video
ID : 0
Format : MPEG-4 Visual
Format profile : Advanced [email protected]
Format settings, BVOP : 1
Format settings, QPel : No
Format settings, GMC : No warppoints
Format settings, Matrix : Custom
Codec ID : XVID
Codec ID/Hint : XviD
Duration : 46mn 32s
Bit rate : 1 197 Kbps
Width : 704 pixels
Height : 400 pixels
Display aspect ratio : 16:9
Frame rate : 25.000 fps
Color space : YUV
Chroma subsampling : 4:2:0
Bit depth : 8 bits
Scan type : Progressive
Compression mode : Lossy
Bits/(Pixel*Frame) : 0.170
Stream size : 398 MiB (90%)
Writing library : XviD 73
Audio
ID : 1
Format : MPEG Audio
Format version : Version 1
Format profile : Layer 3
Codec ID : 55
Codec ID/Hint : MP3
Duration : 46mn 32s
Bit rate mode : Constant
Bit rate : 128 Kbps
Channel(s) : 2 channels
Sampling rate : 48.0 KHz
Compression mode : Lossy
Stream size : 42.6 MiB (10%)
Alignment : Aligned on interleaves
Interleave, duration : 40 ms (1.00 video frame)
Interleave, preload duration : 504 ms
Writing library : LAME3.99r
Encoding settings : -m s -V 4 -q 0 -lowpass 17 -b 128
--- --
Яндекс.Метрика
Рейтинг@Mail.ru