Детсадовский полицейский 2 / Kindergarten Cop 2 (Дон Майкл Пол / Don Michael Paul,...) [2016 г., комедия, HDRip] Dub

 

Создавать темы 20-Май-2016 13:20

-Детсадовский полицейский 2 / Kindergarten Cop 2-- Производство: США, Imagine Entertainment, Universal 1440 Entertainment, Universal Family Entertainment, Where's Arnold Productions
Год выпуска: 2016 г.
Жанр: комедия
Продолжительность: 01:40:06Мировая премьера: 17 мая 2016
Перевод: Профессиональный (полное дублирование) [iTunes]
Режиссер: Дон Майкл Пол / Don Michael Paul,...-В ролях: Дольф Лундгрен, Фиона Врум, Сара Стрэйндж, Алекс Паунович, Билл Беллами, Андре Трикоте, Джоди Томпсон, Рафаэль Алехандро, Дарла Тейлор, Энид-Рэй Адамс-Описание: Главный герой и его верный напарник должны найти съемный накопитель с секретными данными, касающимися федеральной программы защиты свидетелей, который, по случайному стечению обстоятельств, оказывается в руках прелестной воспитательницы детского сада. Но ситуацию усугубляет то, что за этой информацией параллельно охотятся албанские бандиты…-
Качество видео: HDRip
Контейнер: AVI
Видео кодек: XviD
Аудио кодек: AC3
Видео: 720x400 (1.80:1), 23.976 fps, XviD build 50 ~1692 kbps avg, 0.25 bit/pixel
Аудио: 48 kHz, AC3 Dolby Digital, 3/2 (L,C,R,l,r) + LFE ch, ~384 kbps
Cубтитры: отсутствуют

Доп.Информация:

Формат : AVI
Формат/Информация : Audio Video Interleave
Размер файла : 1,46 Гбайт
Продолжительность : 1 ч. 40 м.
Общий поток : 2086 Кбит/сек
Программа кодирования : VirtualDubMod 1.5.10.2 (build 2540/release)
Библиотека кодирования : VirtualDubMod build 2540/releaseВидео
Идентификатор : 0
Формат : MPEG-4 Visual
Профиль формата : Advanced [email protected]/* */
Параметр BVOP формата : 2
Параметр QPel формата : Нет
Параметр GMC формата : Без точки перехода
Параметр матрицы формата : Выборочная
Идентификатор кодека : XVID
Идентификатор кодека/Подсказка : XviD
Продолжительность : 1 ч. 40 м.
Битрейт : 1693 Кбит/сек
Ширина : 720 пикселей
Высота : 400 пикселей
Соотношение сторон : 16:9
Частота кадров : 23,976 (24000/1001) кадра/сек
Цветовое пространство : YUV
Субдискретизация насыщенности : 4:2:0
Битовая глубина : 8 бит
Тип развёртки : Прогрессивная
Метод сжатия : С потерями
Бит/(Пиксели*Кадры) : 0.245
Размер потока : 1,18 Гбайт (81%)
Библиотека кодирования : XviD 1.2.1 (UTC 2008-12-04)Аудио
Идентификатор : 1
Формат : AC-3
Формат/Информация : Audio Coding 3
Расширение режима : CM (complete main)
Параметр Endianness формата : Big
Идентификатор кодека : 2000
Продолжительность : 1 ч. 40 м.
Вид битрейта : Постоянный
Битрейт : 384 Кбит/сек
Каналы : 6 каналов
Расположение каналов : Front: L C R, Side: L R, LFE
Частота : 48,0 КГц
Частота кадров : 31,250 кадров/сек (1536 spf)
Метод сжатия : С потерями
Размер потока : 275 Мбайт (18%)
Выравнивание : Разделение по промежуткам
Продолжительность промежутка : 42 мс. (1,00 видеокадр)
Время предзагрузки промежутка : 500 мс.

Скриншот c названием фильма

Скриншоты

Яндекс.Метрика
Рейтинг@Mail.ru