Зверополис / Zootopia (2016) BDRemux [H.264/1080p] [Line]

 

Создавать темы 20-Май-2016 08:28

-Зверополис / Zootopia (2016) BDRemux [H.264/1080p] [Line]«Добро пожаловать в городские джунгли»- Производство: США, Walt Disney Animation Studios, Walt Disney Pictures
Жанр: мультфильм, боевик, комедия, приключения, семейный
Режиссер: Байрон Ховард, Рич Мур, Джаред Буш
Продюсер: Кларк Спенсер, Джон Лассетер
Актеры: Джиннифер Гудвин, Джейсон Бейтмен, Идрис Эльба, Дженни Слейт, Нейт Торренс, Бонни Хант, Дон Лейк, Томми Чонг, Дж.К. Симмонс, Октавия Спенсер
Описание:
Добро пожаловать в Зверополис — современный город, населенный самыми разными животными, от огромных слонов до крошечных мышек. Зверополис разделен на районы, полностью повторяющие естественную среду обитания разных жителей — здесь есть и элитный район Площадь Сахары и неприветливый Тундратаун. В этом городе появляется новый офицер полиции, жизнерадостная зайчиха Джуди Хоппс, которая с первых дней работы понимает, как сложно быть маленькой и пушистой среди больших и сильных полицейских. Джуди хватается за первую же возможность проявить себя, несмотря на то, что ее партнером будет болтливый хитрый лис Ник Уайлд. Вдвоем им предстоит раскрыть сложное дело, от которого будет зависеть судьба всех обитателей Зверополиса.
Рейтинг MPAA: PG (рекомендуется присутствие родителей)
Дата мировой премьеры: 10 февраля 2016
Дата выхода DVD/Blu-ray релиза: 3 июня 2016

Продолжительность: 01:48:32
Качество видео: BDRemux 1080p
Перевод: Дублированный [Line]
Язык субтитров: Английский
Вид субтитров: Вшитые отключаемые
Реклама: Релиз без рекламы!
Видео: AVC, 1920x1080 (16:9), 23.976 fps, 24,0 Mbps (0.482 bit/pixel)
Аудио #1: AC-3, 48.0 KHz, 2 ch, 192 Kbps, CBR (Russian Line)
Аудио #2: DTS MA / Core, 48.0 KHz, 8 / 6 ch, 4 622 Kbps / 1 510 Kbps, VBR (English)
Аудио #3: AC-3, 48.0 KHz, 6 ch, 640 Kbps, CBR (English)

Mediainfo:

General
Unique ID                   : 226587238735982516566607205311352209426 (0xAA771D642C392365917D104778790012)
Complete name               : E:\Video\Movie\Zootopia.2016.BDRemux.1080p.LINE.RUS.mkv
Format                      : Matroska
Format version              : Version 4 / Version 2
File size                   : 22.3 GiB
Duration                    : 1h 48mn
Overall bit rate mode       : Variable
Overall bit rate            : 29.4 Mbps
Encoded date                : UTC 2016-05-20 05:26:10
Writing application         : mkvmerge v9.1.0 ('Little Earthquakes') 64bit
Writing library             : libebml v1.3.3 + libmatroska v1.4.4
Video
ID                          : 1
Format                      : AVC
Format/Info                 : Advanced Video Codec
Format profile              : [url=mailto:[email protected]][email protected][/url]
Format settings, CABAC      : Yes
Format settings, ReFrames   : 4 frames
Codec ID                    : V_MPEG4/ISO/AVC
Duration                    : 1h 48mn
Bit rate mode               : Variable
Maximum bit rate            : 36.0 Mbps
Width                       : 1 920 pixels
Height                      : 1 080 pixels
Display aspect ratio        : 16:9
Frame rate mode             : Constant
Frame rate                  : 23.976 (24000/1001) fps
Color space                 : YUV
Chroma subsampling          : 4:2:0
Bit depth                   : 8 bits
Scan type                   : Progressive
Bits/(Pixel*Frame)          : 0.482
Stream size                 : 18.1 GiB (81%)
Title                       : NNMCLUB
Language                    : English
Default                     : Yes
Forced                      : No
Audio #1
ID                          : 2
Format                      : AC-3
Format/Info                 : Audio Coding 3
Mode extension              : CM (complete main)
Format settings, Endianness : Big
Codec ID                    : A_AC3
Duration                    : 1h 48mn
Bit rate mode               : Constant
Bit rate                    : 192 Kbps
Channel(s)                  : 2 channels
Channel positions           : Front: L R
Sampling rate               : 48.0 KHz
Frame rate                  : 31.250 fps (1536 spf)
Compression mode            : Lossy
Stream size                 : 149 MiB (1%)
Title                       : LINE
Language                    : Russian
Default                     : Yes
Forced                      : No
Audio #2
ID                          : 3
Format                      : DTS
Format/Info                 : Digital Theater Systems
Format profile              : MA / Core
Mode                        : 16
Format settings, Endianness : Big
Codec ID                    : A_DTS
Duration                    : 1h 48mn
Bit rate mode               : Variable / Constant
Bit rate                    : 4 622 Kbps / 1 509 Kbps
Channel(s)                  : 8 channels / 6 channels
Channel positions           : Front: L C R, Side: L R, Back: L R, LFE / Front: L C R, Side: L R, LFE
Sampling rate               : 48.0 KHz
Frame rate                  : 93.750 fps (512 spf)
Bit depth                   : 24 bits
Compression mode            : Lossless / Lossy
Stream size                 : 3.50 GiB (16%)
Language                    : English
Default                     : No
Forced                      : No
Audio #3
ID                          : 4
Format                      : AC-3
Format/Info                 : Audio Coding 3
Mode extension              : CM (complete main)
Format settings, Endianness : Big
Codec ID                    : A_AC3
Duration                    : 1h 48mn
Bit rate mode               : Constant
Bit rate                    : 640 Kbps
Channel(s)                  : 6 channels
Channel positions           : Front: L C R, Side: L R, LFE
Sampling rate               : 48.0 KHz
Frame rate                  : 31.250 fps (1536 spf)
Compression mode            : Lossy
Stream size                 : 497 MiB (2%)
Language                    : English
Default                     : No
Forced                      : No
Text
ID                          : 5
Format                      : PGS
Muxing mode                 : zlib
Codec ID                    : S_HDMV/PGS
Codec ID/Info               : Picture based subtitle format used on BDs/HD-DVDs
Duration                    : 1h 39mn
Bit rate                    : 14.1 Kbps
Count of elements           : 3404
Stream size                 : 10.1 MiB (0%)
Language                    : English
Default                     : No
Forced                      : No
Menu
00:00:00.000                : en:00:00:00.000
00:00:59.559                : en:00:00:59.559
00:05:50.100                : en:00:05:50.100
00:10:05.563                : en:00:10:05.563
00:14:31.537                : en:00:14:31.537
00:18:24.019                : en:00:18:24.019
00:26:03.353                : en:00:26:03.353
00:30:57.439                : en:00:30:57.439
00:37:07.100                : en:00:37:07.100
00:40:43.441                : en:00:40:43.441
00:44:31.752                : en:00:44:31.752
00:51:40.430                : en:00:51:40.430
00:55:40.378                : en:00:55:40.378
01:00:48.269                : en:01:00:48.269
01:03:37.855                : en:01:03:37.855
01:09:19.822                : en:01:09:19.822
01:13:39.165                : en:01:13:39.165
01:17:07.372                : en:01:17:07.372
01:21:52.366                : en:01:21:52.366
01:28:19.169                : en:01:28:19.169
01:32:43.433                : en:01:32:43.433
01:36:12.141                : en:01:36:12.141
Скриншоты:
Яндекс.Метрика
Рейтинг@Mail.ru