Зверополис / Zootopia (2016) BDRip 720p | D | Line

 

Создавать темы 20-Май-2016 08:25

Зверополис / Zootopia
Страна: США
Производство: Walt Disney Animation Studios, Walt Disney Pictures
Год выпуска: 2016
Жанр: мультфильм, боевик, комедия, криминал, приключения, семейный
Продолжительность: 01:48:32
Режиссеры: Байрон Ховард, Рич Мур, Джаред Буш
Авторы сценария: Джаред Буш, Фил Джонстон, Байрон Ховард
В ролях: Джиннифер Гудвин, Джейсон Бейтман, Идрис Эльба, Дженни Слейт, Нейт Торренс, Бонни Хант
Роли дублировали: Мария Ивакова, Антон Лаврентьев, Борис Хасанов, Мария Аронова, Андрей Мошков
Описание: Добро пожаловать в Зверополис — современный город, населенный самыми разными животными, от огромных слонов до крошечных мышек. Зверополис разделен на районы, полностью повторяющие естественную среду обитания разных жителей — здесь есть и элитный район Площадь Сахары и неприветливый Тундратаун. В этом городе появляется новый офицер полиции, жизнерадостная зайчиха Джуди Хоппс, которая с первых дней работы понимает, как сложно быть маленькой и пушистой среди больших и сильных полицейских. Джуди хватается за первую же возможность проявить себя, несмотря на то, что ее партнером будет болтливый хитрый лис Ник Уайлд. Вдвоем им предстоит раскрыть сложное дело, от которого будет зависеть судьба всех обитателей Зверополиса...-Перевод: Профессиональный (полное дублирование) | чистый звук
Субтитры: нет-Качество: BDRip 720p
Формат: МКV
Видео кодек: AVC
Аудио кодек: АС3 | DTS
Видео: 1280x536 (2.40:1), 23.976 fps, MPEG-4 AVC ~4 827 kbps avg, 0.293 bit/pixel
Аудио №1: 48.0 kHz, AC3 Dolby Digital, 2/0 (L,R) ch, ~192.00 kbps | RUS
Аудио №2: 48.0 kHz, Digital Theater Systems, 3/2 (L,C,R,l,r) + LFE ch, ~1509 kbps | ENG
Дата премьеры (мир): 11 февраля 2016
Дата премьеры (РФ): 3 марта 2016, «WDSSPR»
релиз на DVD, Blu-Ray: 3 июня 2016, «Уолт Дисней Компани СНГ»

Media Info

General
Unique ID : 171350323219143052908393852317568572672 (0x80E8DF315A62080DACBEA2C1B0D39D00)
Format : Matroska
Format version : Version 4 / Version 2
Overall bit rate : 6 660 Kbps
Movie name : MoreFilms
Encoded date : UTC 2016-05-19 20:18:03
Writing application : mkvmerge v8.8.0 ('Wind at my back') 64bit
Writing library : libebml v1.3.3 + libmatroska v1.4.4
DURATION : 00:00:48.428000000
NUMBER_OF_FRAMES : 4540
NUMBER_OF_BYTES : 9134480
_STATISTICS_WRITING_APP : mkvmerge v8.8.0 ('Wind at my back') 64bit
_STATISTICS_WRITING_DATE_UTC : 2016-05-19 20:18:03
_STATISTICS_TAGS : BPS DURATION NUMBER_OF_FRAMES NUMBER_OF_BYTES
Video
ID : 1
Format : AVC
Format/Info : Advanced Video Codec
Format profile : [email protected]
Format settings, CABAC : Yes
Format settings, ReFrames : 5 frames
Codec ID : V_MPEG4/ISO/AVC
Bit rate : 4 827 Kbps
Width : 1 280 pixels
Height : 536 pixels
Display aspect ratio : 2.40:1
Frame rate mode : Constant
Frame rate : 23.976 fps
Color space : YUV
Chroma subsampling : 4:2:0
Bit depth : 8 bits
Scan type : Progressive
Bits/(Pixel*Frame) : 0.293
Stream size : 27.9 MiB (72%)
Language : English
Default : Yes
Forced : No
DURATION : 00:00:48.424000000
NUMBER_OF_FRAMES : 1161
NUMBER_OF_BYTES : 30018664
_STATISTICS_WRITING_APP : mkvmerge v8.8.0 ('Wind at my back') 64bit
_STATISTICS_WRITING_DATE_UTC : 2016-05-19 20:18:03
_STATISTICS_TAGS : BPS DURATION NUMBER_OF_FRAMES NUMBER_OF_BYTES
Audio #1
ID : 2
Format : AC-3
Format/Info : Audio Coding 3
Mode extension : CM (complete main)
Format settings, Endianness : Big
Codec ID : A_AC3
Bit rate mode : Constant
Bit rate : 192 Kbps
Channel(s) : 2 channels
Channel positions : Front: L R
Sampling rate : 48.0 KHz
Compression mode : Lossy
Delay relative to video : 6ms
Stream size : 1.11 MiB (3%)
Default : Yes
Forced : No
Audio #2
ID : 3
Format : DTS
Format/Info : Digital Theater Systems
Mode : 16
Format settings, Endianness : Big
Codec ID : A_DTS
Bit rate mode : Constant
Bit rate : 1 509 Kbps
Channel(s) : 6 channels
Channel positions : Front: L C R, Side: L R, LFE
Sampling rate : 48.0 KHz
Bit depth : 24 bits
Compression mode : Lossy
Delay relative to video : 6ms
Stream size : 8.72 MiB (23%)
Language : English
Default : No
Forced : No
Menu
00:00:00.000 : en:00:05:50.100
00:00:10.593 : en:00:10:05.563

Скриншоты

Яндекс.Метрика
Рейтинг@Mail.ru