Три девятки / Triple 9 (2016) BDRip 1080p от NNNB | iTunes

 

Создавать темы 19-Май-2016 13:49

Три девятки / Triple 9
«Законы улицы не делятся на черные и белые»
Русское название: Три девятки
Оригинальное название: Triple 9
Год выпуска: 2016
Жанр: криминал, драма, триллер
Выпущено: США
Режиссер: Джон Хиллкоут
В ролях: Чиветель Эджиофор , Кейси Аффлек , Энтони Маки , Вуди Харрельсон , Кейт Уинслет , Аарон Пол , Клифтон Коллинз мл. , Норман Ридус , Галь Гадот , Тереза Палмер , Майкл Кеннет Уильямс , Мишель Энг
Перевод: Дублированный - [iTunes]

Сюжет фильма:
Банда преступников и коррумпированных копов планирует убить полицейского, чтобы провернуть ограбление на другом конце города.

Качество: BDRip 1080p
Формат: AVC (библиотека кодирования x.264)
Контейнер (Расширение): MKV
Видео: 1920x804, 21500 Кбит/сек, 23,976 кадр/сек, 0,581 Бит/[Пиксели*Кадры]
Аудио №1: русский / AC3 / 5.1 / 48 kHz / 384 kbps / |Дублированный - [iTunes]|
Аудио №2: английский / AC3 / 5.1 / 48 kHz / 640 kbps /
Субтитры: русские, английские
Навигация по главам(Чаптеры): есть
Продолжительность: 01:55:45
Видеоряд: HDMaNiAcS Релиз от: Сообщество:

MediaInfo

Format : Matroska
Format version : Version 2
File size : 18.2 GiB
Duration : 1h 55mn
Overall bit rate : 22.5 Mbps
Movie name : Triple 9.(2016).BDRip.1080p.[NNNB]
Encoded date : UTC 2016-05-19 10:59:05
Writing application : mkvmerge v5.8.0 ('No Sleep / Pillow') built on Sep 2 2012 15:37:04
Writing library : libebml v1.2.3 + libmatroska v1.3.0
Video
ID : 1
Format : AVC
Format/Info : Advanced Video Codec
Format profile : [email protected]
Format settings, CABAC : Yes
Format settings, ReFrames : 5 frames
Codec ID : V_MPEG4/ISO/AVC
Duration : 1h 55mn
Bit rate : 21.5 Mbps
Width : 1 920 pixels
Height : 804 pixels
Display aspect ratio : 2.40:1
Frame rate : 23.976 fps
Color space : YUV
Chroma subsampling : 4:2:0
Bit depth : 8 bits
Scan type : Progressive
Bits/(Pixel*Frame) : 0.581
Stream size : 17.0 GiB (93%)
Title : Triple 9.(2016).BDRip.1080p.[NNNB]
Writing library : x264 core 148 r2692kMod 64f4e24
Encoding settings : cabac=1 / ref=5 / deblock=1:-3:-3 / analyse=0x3:0x113 / me=umh / subme=11 / psy=1 / fade_compensate=0.00 / psy_rd=1.10:0.00 / mixed_ref=1 / me_range=32 / chroma_me=1 / trellis=2 / 8x8dct=1 / cqm=0 / deadzone=21,11 / fast_pskip=0 / chroma_qp_offset=-2 / threads=12 / lookahead_threads=2 / sliced_threads=0 / nr=0 / decimate=0 / interlaced=0 / bluray_compat=0 / constrained_intra=0 / fgo=0 / bframes=8 / b_pyramid=2 / b_adapt=2 / b_bias=0 / direct=3 / weightb=1 / open_gop=0 / weightp=2 / keyint=240 / keyint_min=23 / scenecut=40 / intra_refresh=0 / rc_lookahead=40 / rc=2pass / mbtree=0 / bitrate=21500 / ratetol=1.0 / qcomp=0.70 / qpmin=10 / qpmax=69 / qpstep=4 / cplxblur=20.0 / qblur=0.5 / vbv_maxrate=62500 / vbv_bufsize=78125 / nal_hrd=none / filler=0 / ip_ratio=1.30 / pb_ratio=1.20 / aq=1:0.60
Language : English
Default : Yes
Forced : No
Audio #1
ID : 2
Format : AC-3
Format/Info : Audio Coding 3
Mode extension : CM (complete main)
Codec ID : A_AC3
Duration : 1h 55mn
Bit rate mode : Constant
Bit rate : 384 Kbps
Channel(s) : 6 channels
Channel positions : Front: L C R, Side: L R, LFE
Sampling rate : 48.0 KHz
Bit depth : 16 bits
Compression mode : Lossy
Stream size : 318 MiB (2%)
Title : iTunes
Language : Russian
Default : Yes
Forced : No
Audio #2
ID : 3
Format : AC-3
Format/Info : Audio Coding 3
Mode extension : CM (complete main)
Codec ID : A_AC3
Duration : 1h 55mn
Bit rate mode : Constant
Bit rate : 640 Kbps
Channel(s) : 6 channels
Channel positions : Front: L C R, Side: L R, LFE
Sampling rate : 48.0 KHz
Bit depth : 16 bits
Compression mode : Lossy
Stream size : 530 MiB (3%)
Language : English
Default : No
Forced : No
Text #1
ID : 4
Format : UTF-8
Codec ID : S_TEXT/UTF8
Codec ID/Info : UTF-8 Plain Text
Language : Russian
Default : No
Forced : No
Text #2
ID : 5
Format : UTF-8
Codec ID : S_TEXT/UTF8
Codec ID/Info : UTF-8 Plain Text
Language : English
Default : No
Forced : No
Menu
00:00:00.000 : en:00:00:00
00:05:34.459 : en:00:05:34
00:12:18.029 : en:00:12:18
00:15:57.039 : en:00:15:57
00:20:25.724 : en:00:20:25
00:28:39.468 : en:00:28:39
00:34:28.942 : en:00:34:28
00:39:29.576 : en:00:39:29
00:44:32.879 : en:00:44:32
00:48:10.888 : en:00:48:10
00:56:32.639 : en:00:56:32
01:02:03.178 : en:01:02:03
01:07:03.019 : en:01:07:03
01:12:12.620 : en:01:12:12
01:16:22.495 : en:01:16:22
01:21:41.647 : en:01:21:41
01:26:30.102 : en:01:26:30
01:32:35.675 : en:01:32:35
01:41:34.255 : en:01:41:34
01:50:13.315 : en:01:50:13

x264

x264 [info]: frame I:880 Avg QP:18.57 size:236172
x264 [info]: frame P:34073 Avg QP:19.25 size:144094
x264 [info]: frame B:131583 Avg QP:20.88 size:102925

Скриншоты

Яндекс.Метрика
Рейтинг@Mail.ru