[ Сегодня на трекере фрилич! Идет свободное скачивание без начисления Download ]

Интерны / Сезон: 1-6 / Серии: 1-120 из 280 (Максим Пежемский, Дина Штурманова) [2010, ситком, DVDRip]

 

Создавать темы 19-Май-2016 13:44

Год выпуска: 2010
Производство: ТНТ
Жанр: ситком
Продолжительность: серия 00:25:00
Субтитры: Отсутствуют
Режиссёр: Максим Пежемский, Дина Штурманова
В ролях: Иван Охлобыстин, Илья Глинников, Один Байрон, Светлана Камынина, Вадим Демчог, Светлана Пермякова, Яна Гурьянова, Александр Ляпин, Юлия Назаренко, Дмитрий Шаракоис, Александр Ильин, Азамат Мусагалиев, Аглая Тарасова
Описание: Жизнь обычной многопрофильной больницы — сплошная рутина. Ненормированный рабочий день, тяжелая, неблагодарная работа, а также инопланетяне, электрики, спивающийся венеролог, озабоченная медсестра, больной-эксгибиционист, ручная крыса, четыре интерна, которые все время расстраивают своего руководителя... Как Иван Охлобыстин в лице доктора Быкова справится со всей этой суетой?
Сэмпл: http://multi-up.com/1092143
[url=tracker.php?f=9&nm=Интерны]Все раздачи сериала[/url]
Качество: DVDRip
Формат: AVI
Видео кодек: XviD
Аудио кодек: AC3
Видео: 640x368 (1.739), 25 fps, XviD build 65 ~1250 kbps avg, 0.212 bit/pixel
Аудио: 48 kHz, AC3, 2 ch, ~192.00 kbps avg

MI

General
Complete name : F:\Video\Сериалы\Интерны\ИНТЕРНЫ_DVDRip_by_iriston\ИНТЕРНЫ_VI\Интерны_101.avi
Format : AVI
Format/Info : Audio Video Interleave
File size : 223 MiB
Duration : 21mn 30s
Overall bit rate : 1 451 Kbps
Writing application : VirtualDubMod 1.5.10.3 | www.virtualdub-fr.org || (build 2550/release)
Writing library : VirtualDubMod build 2550/release
Video
ID : 0
Format : MPEG-4 Visual
Format profile : Advanced [email protected]
Format settings, BVOP : 1
Format settings, QPel : No
Format settings, GMC : No warppoints
Format settings, Matrix : Custom
Codec ID : XVID
Codec ID/Hint : XviD
Duration : 21mn 30s
Bit rate : 1 250 Kbps
Width : 640 pixels
Height : 368 pixels
Display aspect ratio : 1.739
Frame rate : 25.000 fps
Color space : YUV
Chroma subsampling : 4:2:0
Bit depth : 8 bits
Scan type : Progressive
Compression mode : Lossy
Bits/(Pixel*Frame) : 0.212
Stream size : 192 MiB (86%)
Writing library : XviD 65
Audio
ID : 1
Format : AC-3
Format/Info : Audio Coding 3
Mode extension : CM (complete main)
Format settings, Endianness : Big
Codec ID : 2000
Duration : 21mn 30s
Bit rate mode : Constant
Bit rate : 192 Kbps
Channel(s) : 2 channels
Channel positions : Front: L R
Sampling rate : 48.0 KHz
Frame rate : 31.250 fps (1536 spf)
Compression mode : Lossy
Stream size : 29.5 MiB (13%)
Alignment : Split accross interleaves
Interleave, duration : 40 ms (1.00 video frame)
Interleave, preload duratio : 500 ms

Скриншоты

Яндекс.Метрика
Рейтинг@Mail.ru