Волки и овцы: бе-е-е-зумное превращение (Максим Волков, Андрей Галат) [2016, Россия, Мультипликация, WEB-DL 1080p]

 

Создавать темы 18-Май-2016 20:15

Волки и овцы: бе-е-е-зумное превращение
Страна: Россия
Жанр: Мультипликация
Продолжительность: 01:24:42
Год выпуска: 2016
Перевод: Не требуется
Русские субтитры: нет-Режиссёр: Максим Волков, Андрей Галат
Роли озвучивали: Александр Петров, Елизавета Боярская, Сергей Безруков, Екатерина Иванчикова, Юрий Гальцев, Андрей Рожков, Татьяна Шитова, Диомид Виноградов, Андрей Бархударов, Дмитрий Филимонов-Описание: Любимцу стаи, молодому и беззаботному волку Серому невдомек, что скоро он окажется чужим среди своих друзей. Претендуя на роль вожака стаи и на руку (вернее, лапу) и сердце самой красивой волчицы Бьянки, Серый продолжает дурачиться и устраивать розыгрыши над сородичами. Все переворачивается с ног на голову, когда он решает изменить себя с помощью волшебного зелья. Чудо действительно происходит: Серый превращается в барана! Опасаясь за свою, теперь овечью, шкуру, Серый сбегает от волков и поселяется в деревне овец. Теперь Серому предстоит не только вернуть доверие возлюбленной и стаи, но и свой прежний облик. Но как это сделать, если у тебя есть всего три дня, да еще рога и копыта?-Релиз от - -Качество: WEB-DL 1080p
Формат: MKV
Видео: AVC, 1920x804 (2.40:1), 24.000 fps, 4 430 Kbps (0.120 bit/pixel)
Аудио: AC-3, 48.0 KHz, 6 ch, 384 Kbps, CBR (Russian) [iTunes]
Субтитры: отсутствуют
Семпл: Забираем тут

Подробные технические данные

Общее
Уникальный идентификатор : 201116241460819337143976494507523970641 (0x974D9444B1E329248FE22BB27A921651)
Полное имя : Волки и овцы бе-е-е-зумное превращение 2016 WEB-DL 1080P.mkv
Формат : Matroska
Версия формата : Version 4 / Version 2
Размер файла : 2,91 Гбайт
Продолжительность : 1 ч. 24 м.
Общий поток : 4911 Кбит/сек
Дата кодирования : UTC 2016-05-18 06:05:22
Программа кодирования : mkvmerge v8.8.0 ('Wind at my back') 64bit
Библиотека кодирования : libebml v1.3.3 + libmatroska v1.4.4
Видео
Идентификатор : 1
Формат : AVC
Формат/Информация : Advanced Video Codec
Профиль формата : [email protected]
Параметр CABAC формата : Да
Параметр ReFrames формата : 5 кадров
Идентификатор кодека : V_MPEG4/ISO/AVC
Продолжительность : 1 ч. 24 м.
Битрейт : 4526 Кбит/сек
Ширина : 1920 пикселей
Высота : 804 пикселя
Соотношение сторон : 2,40:1
Режим частоты кадров : Постоянный
Частота кадров : 24,000 кадра/сек
Цветовое пространство : YUV
Субдискретизация насыщенности : 4:2:0
Битовая глубина : 8 бит
Тип развёртки : Прогрессивная
Бит/(Пиксели*Кадры) : 0.122
Размер потока : 2,68 Гбайт (92%)
Язык : English
Default : Да
Forced : Нет
Цветовой диапазон : Limited
Основные цвета : BT.709
Характеристики трансфера : BT.709
Коэффициенты матрицы : BT.709
Аудио
Идентификатор : 2
Формат : AC-3
Формат/Информация : Audio Coding 3
Расширение режима : CM (complete main)
Параметр Endianness формата : Big
Идентификатор кодека : A_AC3
Продолжительность : 1 ч. 24 м.
Вид битрейта : Постоянный
Битрейт : 384 Кбит/сек
Каналы : 6 каналов
Расположение каналов : Front: L C R, Side: L R, LFE
Частота : 48,0 КГц
Частота кадров : 31,250 кадров/сек (1536 spf)
Метод сжатия : С потерями
Размер потока : 233 Мбайт (8%)
Язык : Russian
Default : Да
Forced : Нет
Меню
00:00:00.000 : en:Глава 1
00:07:15.583 : en:Глава 2
00:12:27.833 : en:Глава 3
00:20:15.791 : en:Глава 4
00:26:23.791 : en:Глава 5
00:31:57.166 : en:Глава 6
00:38:49.082 : en:Глава 7
00:44:24.957 : en:Глава 8
00:50:30.540 : en:Глава 9
00:56:20.790 : en:Глава 10
01:02:49.081 : en:Глава 11
01:09:37.581 : en:Глава 12
01:16:37.831 : en:Глава 13

Скриншоты

Яндекс.Метрика
Рейтинг@Mail.ru