Первый мститель: Противостояние / Captain America: Civil War (Энтони Руссо, Джо Руссо / Anthony Russo, Joe Russo) [2016 г., фантастика, боевик, триллер, приключения, TC] Dub [Чистый Звук]

 

Создавать темы 17-Май-2016 02:25

--Первый мститель: Противостояние / Captain America: Civil War--«Разделившись мы падём»-- Производство: США, Marvel Entertainment, Marvel Studios, Studio Babelsberg
Год выпуска: 2016 г.
Жанр: фантастика, боевик, триллер, приключения
Продолжительность: 02:26:57--Мировая премьера: 12 апреля 2016
Российская премьера: 5 мая 2016, «WDSSPR»
Дата выхода DVD: 2 августа 2016, «Уолт Дисней Компани СНГ»
Дата выхода Blu-Ray: 2 августа 2016, «Уолт Дисней Компани СНГ»--Перевод: Профессиональный (полное дублирование) [Чистый Звук]--Режиссер: Энтони Руссо, Джо Руссо / Anthony Russo, Joe Russo--В ролях: Крис Эванс, Роберт Дауни мл., Скарлетт Йоханссон, Себастьян Стэн, Энтони Маки, Дон Чидл, Джереми Реннер, Чедвик Боузман, Пол Беттани, Элизабет Олсен--Описание: Мстители под руководством Капитана Америки оказываются участниками разрушительного инцидента, имеющего международный масштаб. Эти события заставляют правительство задуматься над тем, чтобы начать регулировать действия всех людей с особыми способностями, введя «Акт о регистрации супергероев», вынуждая их раскрыть свои личности и работать на правительственные службы.
Видя в этом законе нарушение гражданских прав и плевок во всё, что он верит, Стив Роджерс открыто восстаёт против нового режима, ведя за собой группу героев, поддерживающих его мнение. В свою же очередь, Тони Старк видит правильность в новом законе, и становится во главе героев, поддерживающих его. Всё это приводит к неизбежному расколу Мстителей, и гражданской войне между двумя сторонами. Сражаясь друг с другом, Старк и Роджерс не знают о том, что таинственный Барон Земо уже строит свои собственные планы, воспользовавшись расколом величайших героев Земли.-- --Качество видео: TC
Контейнер: AVI
Видео кодек: XviD
Аудио кодек: AC3
Видео: 720x320 (2.25:1), 29.970 fps, XviD build 50 ~1786 kbps avg, 0.26 bit/pixel
Аудио: 48 kHz, AC3 Dolby Digital, 2/0 (L,R) ch, ~192 kbpsCубтитры:
-Присутствуют местами вшитые корейские субтитры.-

Media Info

Общее
Полное имя : H:\Torrent2\Perviy_protiv_Zeleznogo.2O16.D.Telecine.21OOMB.avi
Формат : AVI
Формат/Информация : Audio Video Interleave
Профиль формата : OpenDML
Размер файла : 2,05 Гбайт
Продолжительность : 2 ч. 27 м.
Общий поток : 1993 Кбит/сек
Программа кодирования : VirtualDubMod 1.5.10.2 (build 2540/release)
Библиотека кодирования : VirtualDubMod build 2540/releaseВидео
Идентификатор : 0
Формат : MPEG-4 Visual
Профиль формата : Advanced [email protected]/* */
Параметр BVOP формата : 2
Параметр QPel формата : Нет
Параметр GMC формата : Без точки перехода
Параметр матрицы формата : Выборочная
Идентификатор кодека : XVID
Идентификатор кодека/Подсказка : XviD
Продолжительность : 2 ч. 27 м.
Битрейт : 1786 Кбит/сек
Ширина : 720 пикселей
Высота : 320 пикселей
Соотношение сторон : 2,25:1
Частота кадров : 29,970 (30000/1001) кадров/сек
Цветовое пространство : YUV
Субдискретизация насыщенности : 4:2:0
Битовая глубина : 8 бит
Тип развёртки : Прогрессивная
Метод сжатия : С потерями
Бит/(Пиксели*Кадры) : 0.259
Размер потока : 1,84 Гбайт (90%)
Библиотека кодирования : XviD 1.2.1 (UTC 2008-12-04)Аудио
Идентификатор : 1
Формат : AC-3
Формат/Информация : Audio Coding 3
Расширение режима : CM (complete main)
Параметр Endianness формата : Big
Идентификатор кодека : 2000
Продолжительность : 2 ч. 27 м.
Вид битрейта : Постоянный
Битрейт : 192 Кбит/сек
Каналы : 2 канала
Расположение каналов : Front: L R
Частота : 48,0 КГц
Частота кадров : 31,250 кадров/сек (1536 spf)
Метод сжатия : С потерями
Размер потока : 203 Мбайт (10%)
Выравнивание : Разделение по промежуткам
Продолжительность промежутка : 33 мс. (1,00 видеокадр)
Время предзагрузки промежутка : 500 мс.

Скриншоты

ТрейлерВнимание присутствуют вставки голосовой и текстовой рекламы.
Яндекс.Метрика
Рейтинг@Mail.ru