Страна хороших деточек (Ольга Каптур) [2013 г., детский, приключения, семейный, WEB-DLRip]

 

Создавать темы 30-Дек-2013 15:20

--Страна хороших деточек--«А вы хорошо себя ведете?»-- Производство: Россия
Режиссер: Ольга Каптур
Жанр: детский, приключения, семейный
Год выпуска: 2013 г.
Продолжительность: 01:18:49--Российская премьера: 19 декабря 2013, «Вольга»
Дата выхода DVD: 30 декабря 2013, «Вольга»--В ролях: Кира Флейшер, Вячеслав Манучаров, Наталья Селезнёва, Владимир Грамматиков, Андрей Кайков, Ирина Пегова, Дмитрий Назаров, Евгений Воскресенский, Ивонн Каттерфельд, Дарья Андреева--Описание: Девочка Саша была весёлой, но не очень хорошей девочкой. Она жила с бабушкой, дедушкой, мамой, папой, псом Балбесом и котом Багетом. Однажды в новогоднюю ночь по загаданному в сердцах желанию родителей Саша была отправлена волшебником в Страну Хороших Деточек на перевоспитание. Только действительно ли так хороша эта страна?-- --Трейлер--Качество видео: WEB-DLRip
Контейнер: AVI
Видео кодек: XviD
Аудио кодек: AC3
Видео: 720x400 (1.80:1), 25 fps, XviD build 73 ~2078 kbps avg, 0.29 bit/pixel
Аудио: 48 kHz, AC3 Dolby Digital, 3/2 (L,C,R,l,r) + LFE ch, ~384 kbps
Cубтитры: Отсутствуют

Media Info

Общее
Полное имя : D:\Torrent 2\StraHa.h0r0sh1h.d3t0chek.2013.O.WEB-DLRip.1400MB_[pirat.ca].avi
Формат : AVI
Формат/Информация : Audio Video Interleave
Размер файла : 1,36 Гбайт
Продолжительность : 1 ч. 18 м.
Общий поток : 2473 Кбит/сек
Программа кодирования : VirtualDubMod 1.5.10.3 | www.virtualdub-fr.org || (build 2550/release)
Библиотека кодирования : VirtualDubMod build 2550/release
Видео
Идентификатор : 0
Формат : MPEG-4 Visual
Профиль формата : Advanced [email protected]
Параметр BVOP формата : 2
Параметр QPel формата : Нет
Параметр GMC формата : Без точки перехода
Параметр матрицы формата : Default (H.263)
Идентификатор кодека : XVID
Идентификатор кодека/Подсказка : XviD
Продолжительность : 1 ч. 18 м.
Битрейт : 2079 Кбит/сек
Ширина : 720 пикселей
Высота : 400 пикселей
Соотношение сторон : 16:9
Частота кадров : 25,000 кадров/сек
Цветовое пространство : YUV
Субдискретизация насыщенности : 4:2:0
Битовая глубина : 8 бит
Тип развёртки : Прогрессивная
Метод сжатия : С потерями
Бит/(Пиксели*Кадры) : 0.289
Размер потока : 1,14 Гбайт (84%)
Библиотека кодирования : XviD 73
Аудио
Идентификатор : 1
Формат : AC-3
Формат/Информация : Audio Coding 3
Расширение режима : CM (complete main)
Параметр Endianness формата : Big
Идентификатор кодека : 2000
Продолжительность : 1 ч. 18 м.
Вид битрейта : Постоянный
Битрейт : 384 Кбит/сек
Каналы : 6 каналов
Расположение каналов : Front: L C R, Side: L R, LFE
Частота : 48,0 КГц
Битовая глубина : 16 бит
Метод сжатия : С потерями
Размер потока : 216 Мбайт (16%)
Выравнивание : Разделение по промежуткам
Продолжительность промежутка : 40 мс. (1,00 видеокадр)
Время предзагрузки промежутка : 500 мс.

Скриншоты

Создавать темы 31-Янв-2016 14:02 (спустя 2 года 1 месяц)

Топик был перенесен из форума Отечественные Новинки (HD*Rip/LQ, DVDRip) в форум Отечественные Фильмы (HD*Rip/LQ, DVDRip, SATRip, VHSRip)
T_O_M
Яндекс.Метрика
Рейтинг@Mail.ru