[ Сегодня на трекере фрилич! Идет свободное скачивание без начисления Download ]

Гордость и предубеждение и зомби / Pride and Prejudice and Zombies (Бёрр Стирс / Burr Steers) [2015 г., ужасы, боевик, мелодрама, WEB-DLRip] MVO [ColdFilm]

 

Создавать темы 17-Май-2016 02:09

--Гордость и предубеждение и зомби / Pride and Prejudice and Zombies--«'It is a truth universally acknowledged that a zombie in possession of brains must be in want of more brains.' - Jane Austen and Seth Grahame-Smith»-- Производство: США, Великобритания, Allison Shearmur Productions, Cross Creek Pictures, Lionsgate
Год выпуска: 2015 г.
Жанр: ужасы, боевик, мелодрама
Продолжительность: 01:42:41--Мировая премьера: 21 января 2016
Российская премьера: 18 февраля 2016, «Централ Партнершип»--Перевод: Любительский (многоголосый, закадровый) [ColdFilm]--Режиссер: Бёрр Стирс / Burr Steers--В ролях: Лили Джеймс, Сэм Райли, Белла Хиткот, Элли Бамбер, Милли Брэйди, Сьюки Уотерхаус, Дуглас Бут, Сэлли Филлипс, Чарльз Дэнс, Джек Хьюстон, Лина Хиди, Мэтт Смит, Эмма Гринвелл, Эва Белл, Эшлин Лофтус, Чарли Энсон, Том Лоркан, Роберт Файф, Дэн Коэн, Николас Марчи--Описание: Англия, XIX век. Элизабет Беннет и её сестры вынуждены противостоять заполонившим Англию ходячим мертвецам, а так же девушки сталкиваются с давлением необходимости найти себе мужей.-- --Качество видео: WEB-DLRip
Контейнер: AVI
Видео кодек: XviD
Аудио кодек: AC3
Видео: 720x304 (2.37:1), 25 fps, XviD build 50 ~1702 kbps avg, 0.31 bit/pixel
Аудио: 48 kHz, AC3 Dolby Digital, 2/0 (L,R) ch, ~192 kbps
Cубтитры: отсутствуют.

Media Info

Общее
Полное имя : H:\Torrent2\Pride.and.Prejudice.and.Zombies.2016.L.WEB-DLRip.1.37GB.by.toxics.avi
Формат : AVI
Формат/Информация : Audio Video Interleave
Размер файла : 1,37 Гбайт
Продолжительность : 1 ч. 42 м.
Общий поток : 1905 Кбит/сек
Программа кодирования : VirtualDubMod 1.5.10.2 (build 2540/release)
Библиотека кодирования : VirtualDubMod build 2540/releaseВидео
Идентификатор : 0
Формат : MPEG-4 Visual
Профиль формата : Advanced [email protected]/* */
Параметр BVOP формата : 2
Параметр QPel формата : Нет
Параметр GMC формата : Без точки перехода
Параметр матрицы формата : Выборочная
Идентификатор кодека : XVID
Идентификатор кодека/Подсказка : XviD
Продолжительность : 1 ч. 42 м.
Битрейт : 1703 Кбит/сек
Ширина : 720 пикселей
Высота : 304 пикселя
Соотношение сторон : 2,35:1
Частота кадров : 25,000 кадров/сек
Цветовое пространство : YUV
Субдискретизация насыщенности : 4:2:0
Битовая глубина : 8 бит
Тип развёртки : Прогрессивная
Метод сжатия : С потерями
Бит/(Пиксели*Кадры) : 0.311
Размер потока : 1,22 Гбайт (89%)
Библиотека кодирования : XviD 1.2.1 (UTC 2008-12-04)Аудио
Идентификатор : 1
Формат : AC-3
Формат/Информация : Audio Coding 3
Расширение режима : CM (complete main)
Параметр Endianness формата : Big
Идентификатор кодека : 2000
Продолжительность : 1 ч. 42 м.
Вид битрейта : Постоянный
Битрейт : 192 Кбит/сек
Каналы : 2 канала
Расположение каналов : Front: L R
Частота : 48,0 КГц
Частота кадров : 31,250 кадров/сек (1536 spf)
Метод сжатия : С потерями
Размер потока : 141 Мбайт (10%)
Выравнивание : Разделение по промежуткам
Продолжительность промежутка : 40 мс. (1,00 видеокадр)
Время предзагрузки промежутка : 500 мс.

Скриншоты

Трейлер
Яндекс.Метрика
Рейтинг@Mail.ru