Такая порода (Серии 1—4 из 4) (Артем Мазунов) [2016, криминальная драма, SATRip]

 

Создавать темы 15-Май-2016 18:48

--Такая порода--
  • Год выпуска: 2016
  • Страна: Россия / «Киностудия Анкор»
  • Жанр: криминальная драма
  • Продолжительность: 4 х ~00:44:00
  • Перевод: Не требуется-
  • Режиссёр: Артём Мазунов-
  • В ролях: Михаил Жигалов, Анатолий Лобоцкий, Александр Зельский, Олег Метелев...-
  • В центре остросюжетной драмы — три поколения семьи Гавриловых: пенсионер Григорий (Михаил Жигалов), его сын Василий (Анатолий Лобоцкий) и внук Артем (Александр Зельский). Главные герои сериала «Такая порода» терпеть друг друга не могут и стараются встречаться только по необходимости. У каждого из Гавриловых свои взгляды на жизнь: Артем занимается угоном автомобилей, дедушка ведет обычную жизнь пенсионера, а Василий честно управляет собственной фирмой. Гавриловы и дальше бы не общались, если бы ни один случай: Василий становится жертвой похищения, и за его возвращение требуют выкуп. Дед с внуком вместе начинают поиски преступников...-
  • Премьера в России: 15 мая 2016--
  • --
  • Качество видео: SATRip
  • Формат видео: AVI
  • Видео кодек: XviD
  • Аудио кодек: MP3
  • Видео: 720x448 (1.61:1), 25.000 fps, XviD MPEG-4, ~1800 kbps avg, 0.223 bit/pixel
  • Аудио: 48.0 kHz, MPEG Audio Layer 3, 2 ch, ~128.00 kbps avg
  • Субтитры: нет
--

Media Info

General
Complete name : W:\O.S.A.\Торренты\Завершенные торренты\Takaja.poroda.2016.SATRip\Takaja.poroda.1.avi
Format : AVI
Format/Info : Audio Video Interleave
File size : 607 MiB
Duration : 43mn 49s
Overall bit rate : 1 938 Kbps
Writing application : VirtualDubModRus 1.5.10.2 (build 2542/release)
Writing library : VirtualDubMod build 2542/release
Video
ID : 0
Format : MPEG-4 Visual
Format profile : Advanced [email protected]
Format settings, BVOP : 2
Format settings, QPel : No
Format settings, GMC : No warppoints
Format settings, Matrix : Default (H.263)
Codec ID : XVID
Codec ID/Hint : XviD
Duration : 43mn 49s
Bit rate : 1 800 Kbps
Width : 720 pixels
Height : 448 pixels
Display aspect ratio : 1.607
Frame rate : 25.000 fps
Color space : YUV
Chroma subsampling : 4:2:0
Bit depth : 8 bits
Scan type : Progressive
Compression mode : Lossy
Bits/(Pixel*Frame) : 0.223
Stream size : 564 MiB (93%)
Writing library : XviD 1.2.1 (UTC 2008-12-04)
Audio
ID : 1
Format : MPEG Audio
Format version : Version 1
Format profile : Layer 3
Codec ID : 55
Codec ID/Hint : MP3
Duration : 43mn 49s
Bit rate mode : Constant
Bit rate : 128 Kbps
Channel(s) : 2 channels
Sampling rate : 48.0 KHz
Compression mode : Lossy
Stream size : 40.1 MiB (7%)
Alignment : Aligned on interleaves
Interleave, duration : 40 ms (1.00 video frame)
Interleave, preload duration : 504 ms
Writing library : LAME3.99r
Encoding settings : -m s -V 4 -q 2 -lowpass 17 -b 128
--- --
Яндекс.Метрика
Рейтинг@Mail.ru