Uncharted 4: Путь вора / Uncharted 4: A Thief’s End (2016) WEBRip 720p | Игрофильм | D

 

Создавать темы 15-Май-2016 12:30

Оригинальное название: Uncharted 4: A Thief’s End
Год выпуска: 2016 г.
Разработчик игры: Naughty Dog (США)
Создатель видео: GamingWalkDi
Жанр: Игрофильм
Продолжительность: 06:26:21-Перевод: Дублированный [Официальный]
Субтитры: Русский хардсаб [Экранные надписи и тп.]-Режиссеры: Нил Дракманн, Брюс Страли
В ролях: Нолан Норт, Трой Бэйкер, Ричард МакГонагл, Эмили Роуз, Уоррен Коул, Лора Бэйли, Брэндон Скотт и др.-Описание:
Через три года после событий «Uncharted 3: Иллюзии Дрейка», Натан Дрейк как будто бы покинул мир охотников за сокровищами. Однако судьба бросает ему новый вызов, когда в жизни Дрейка вновь появляется его брат, Сэм, с просьбой спасти его жизнь. Он предлагает Дрейку приключение, от которого тот не может отказаться.
Охотясь за давно потерянными сокровищами капитана Генри Эвери, Сэм и Дрейк отправляются на поиски Либерталии, пиратской утопии глубоко в лесах Мадагаскара. «Uncharted 4: Путь вора» берет игроков в путешествие по всему миру, через поросшие джунглями острова, затерянные города и заснеженные вершины на поиски сокровища Эвери.

Дополнительная информация:
Данное видео позиционируется как ИГРОФИЛЬМ (без комментариев). В игрофильме присутствуют все катсцены + урезанный геймплей (только геймплей который делает игрофильм цельным и сцены плавно перетекающие из геймплея в катсцену). Также хочу отметить и то, что сжимать Uncharted 4 в 1,5 или 2 часа экранного фильма просто невозможно, потеряются многие ключевые сюжетные повороты, да и вообще в игре геймплея кот наплакал, так как в основном в игре преобладают сами катсцены и геймплей плавно переходящий в катсцену.
-Качество: WEBRip 720p
Формат: MP4
Видео: MPEG-4 AVC Video (H.264) / 1280х720 / 1662 kbps / 29.970 fps
Аудио: AAC, 2 channels, 44.1 kHz, 128 kbps-

MediaInfo

General
Complete name : Uncharted.4.A.Thiefs.End.2016.D.WEBRip.720p.mp4
Format : MPEG-4
Format profile : Base Media / Version 2
Codec ID : mp42
File size : 4.84 GiB
Duration : 6h 26mn
Overall bit rate mode : Variable
Overall bit rate : 1 792 Kbps
Encoded date : UTC 2016-05-14 05:11:48
Tagged date : UTC 2016-05-14 05:11:48
gsst : 0
gstd : 23181711
Video
ID : 1
Format : AVC
Format/Info : Advanced Video Codec
Format profile : [email protected]
Format settings, CABAC : Yes
Format settings, ReFrames : 3 frames
Codec ID : avc1
Codec ID/Info : Advanced Video Coding
Duration : 6h 26mn
Bit rate : 1 662 Kbps
Width : 1 280 pixels
Height : 720 pixels
Display aspect ratio : 16:9
Frame rate mode : Constant
Frame rate : 29.970 fps
Color space : YUV
Chroma subsampling : 4:2:0
Bit depth : 8 bits
Scan type : Progressive
Bits/(Pixel*Frame) : 0.060
Stream size : 4.49 GiB (93%)
Title : ISO Media file produced by Google Inc.
Encoded date : UTC 2016-05-14 05:11:48
Tagged date : UTC 2016-05-14 05:11:48
Color primaries : BT.709
Transfer characteristics : BT.709
Matrix coefficients : BT.709
Color range : Limited
Audio
ID : 2
Format : AAC
Format/Info : Advanced Audio Codec
Format profile : LC
Codec ID : 40
Duration : 6h 26mn
Bit rate mode : Variable
Bit rate : 126 Kbps
Channel(s) : 2 channels
Channel positions : Front: L R
Sampling rate : 44.1 KHz
Compression mode : Lossy
Stream size : 347 MiB (7%)
Title : ISO Media file produced by Google Inc.
Encoded date : UTC 2016-05-14 05:11:48
Tagged date : UTC 2016-05-14 05:11:48
-

Скриншоты

Смотреть видео
Яндекс.Метрика
Рейтинг@Mail.ru