[ Сегодня на трекере фрилич! Идет свободное скачивание без начисления Download ]

Белоснежка и Охотник 2 / The Huntsman: Winter's War (2016) WEBRip | D | Звук с TC

 

Создавать темы 13-Май-2016 21:08

Белоснежка и Охотник 2 / The Huntsman: Winter's War
Страна: США
Производство: Universal Pictures, Roth Films
Год выпуска: 2016
Жанр: фэнтези, боевик, драма, приключения
Продолжительность: 01:53:38
Режиссер: Седрик Николя-Троян
Авторы сценария: Эван Спилиотопулос, Крэйг Мазин, Ивэн Догерти
Продюсеры: Джо Рот, Сара Брэдшоу, Палак Патель
В ролях: Крис Хемсворт, Джессика Честейн, Сэм Клафлин, Эмили Блант, Шарлиз Терон, Софи Куксон, Шеридан Смит
Описание: Когда любовь уходит, сердце прекрасной девы обращается в лед. И даже сотни королевств не смогут сдержать поступь ее несметного воинства. Лишь Охотник не ведает страха. Сквозь проклятый лес он идет навстречу своей судьбе...

Перевод: Профессиональный (полное дублирование) | Звук с TC
Субтитры: корейские (вшитые)-Качество: WEBRip
Формат: АVI
Видео кодек: XviD
Аудио кодек: АС3
Видео: 720x304 (2.35:1), 29.970 fps, ~1 632 kbps avg, 0.249 bit/pixel
Аудио: 48.0 kHz, AC3 Dolby Digital, 2/0 (L,R) ch, ~192 kbps
Дата премьеры (мир): 4 апреля 2016
Дата премьеры (РФ): 14 апреля 2016, «UPI»
ПРИМЕЧАНИЕ: ПРИСУТСТВУЕТ РЕКЛАМА!

MediaInfo

General
Complete name                            : BeLoSneGkO.2.2O16.D.WEBRip.1.46Gb_KOSHERA.avi
Format                                   : AVI
Format/Info                              : Audio Video Interleave
File size                                : 1.46 GiB
Duration                                 : 1h 53mn
Overall bit rate                         : 1 836 Kbps
Writing application                      : VirtualDubMod 1.5.10.2 (build 2540/release)
Writing library                          : VirtualDubMod build 2540/release
Video
ID                                       : 0
Format                                   : MPEG-4 Visual
Format profile                           : Advanced [email protected]
Format settings, BVOP                    : 2
Format settings, QPel                    : No
Format settings, GMC                     : No warppoints
Format settings, Matrix                  : Custom
Codec ID                                 : XVID
Codec ID/Hint                            : XviD
Duration                                 : 1h 53mn
Bit rate                                 : 1 632 Kbps
Width                                    : 720 pixels
Height                                   : 304 pixels
Display aspect ratio                     : 2.35:1
Frame rate                               : 29.970 fps
Color space                              : YUV
Chroma subsampling                       : 4:2:0
Bit depth                                : 8 bits
Scan type                                : Progressive
Compression mode                         : Lossy
Bits/(Pixel*Frame)                       : 0.249
Stream size                              : 1.30 GiB (89%)
Writing library                          : XviD 1.2.1 (UTC 2008-12-04)
Audio
ID                                       : 1
Format                                   : AC-3
Format/Info                              : Audio Coding 3
Mode extension                           : CM (complete main)
Format settings, Endianness              : Big
by                                       : http://ddgroupclub.ru/
Codec ID                                 : 2000
Duration                                 : 1h 53mn
Bit rate mode                            : Constant
Bit rate                                 : 192 Kbps
Channel(s)                               : 2 channels
Channel positions                        : Front: L R
Sampling rate                            : 48.0 KHz
Bit depth                                : 16 bits
Compression mode                         : Lossy
Stream size                              : 156 MiB (10%)
Alignment                                : Split accross interleaves
Interleave, duration                     : 33 ms (1.00 video frame)
Interleave, preload duration             : 500 ms

Скриншоты:

Яндекс.Метрика
Рейтинг@Mail.ru