(Ambient, New-Age, Electronic) Jean-Michel Jarre - Electronica 2: The Heart of Noise - 2016 [WavPack, image+.cue, Lossless]

 

Создавать темы 12-Май-2016 05:43

-Jean-Michel Jarre - Electronica 2: The Heart of Noise--
Год издания: 2016
Лейбл: Sony Music
Жанр: Ambient, New-Age, Electronic
Номер по каталогу: 88875196672
Продолжительность: 01:14:15
Формат: WavPack
Битрейт аудио: Lossless
Тип рипа: image+.cue
Наличие сканов в содержимом раздачи: да-Трэклист:
01. The Heart of Noise, Pt. 1 (feat. Rone)
02. The Heart of Noise, Pt. 2
03. Brick England (feat. Pet Shop Boys)
04. These Creatures (feat. Julia Holter)
05. As One (feat. Primal Scream)
06. Here For You (feat. Gary Numan)
07. Electrees feat. (Hans Zimmer)
08. Exit (feat. E.S.)
09. What You Want (feat. Peaches)
10. Gisele (feat. Sebastian Tellier)
11. Swithc on Leon (feat. The Orb)
12. Circus (feat. Siriusmo)
13. Why This, Why That and Why (feat. Yello)
14. The Architect (feat. Jeff Mills)
15. Swipe to the Right (feat. Cyndi Lauper)
16. Walking the Mile (feat. Christophe)
17. Falling Down
18. The Heart of Noise (The Origin)

Log

Код:
Exact Audio Copy V1.1 from 23. June 2015EAC extraction logfile from 3. May 2016, 13:51Jean-Michel Jarre / Electronica 2: The Heart of Noise [88875196672]Used drive  : HL-DT-STBD-RE  BH10LS38   Adapter: 1  ID: 1Read mode               : Secure
Utilize accurate stream : Yes
Defeat audio cache      : Yes
Make use of C2 pointers : NoRead offset correction                      : 667
Overread into Lead-In and Lead-Out          : No
Fill up missing offset samples with silence : Yes
Delete leading and trailing silent blocks   : No
Null samples used in CRC calculations       : Yes
Used interface                              : Installed external ASPI interfaceUsed output format              : User Defined Encoder
Selected bitrate                : 128 kBit/s
Quality                         : High
Add ID3 tag                     : No
Command line compressor         : C:\Program Files (x86)\Exact Audio Copy\wavpack-4.60.1\wavpack.exe
Additional command line options : -hm -w "Year=%year%" -w "Genre=%genre%" %source% %dest%TOC of the extracted CD     Track |   Start  |  Length  | Start sector | End sector
---------------------------------------------------------
1  |  0:00.00 |  4:25.47 |         0    |    19921
2  |  4:25.47 |  4:10.04 |     19922    |    38675
3  |  8:35.51 |  4:01.00 |     38676    |    56750
4  | 12:36.51 |  3:40.37 |     56751    |    73287
5  | 16:17.13 |  3:58.38 |     73288    |    91175
6  | 20:15.51 |  3:59.00 |     91176    |   109100
7  | 24:14.51 |  4:09.70 |    109101    |   127845
8  | 28:24.46 |  6:19.05 |    127846    |   156275
9  | 34:43.51 |  3:27.00 |    156276    |   171800
10  | 38:10.51 |  3:43.37 |    171801    |   188562
11  | 41:54.13 |  4:42.73 |    188563    |   209785
12  | 46:37.11 |  3:08.65 |    209786    |   223950
13  | 49:46.01 |  3:58.12 |    223951    |   241812
14  | 53:44.13 |  4:43.00 |    241813    |   263037
15  | 58:27.13 |  4:54.00 |    263038    |   285087
16  | 63:21.13 |  4:52.00 |    285088    |   306987
17  | 68:13.13 |  3:23.00 |    306988    |   322212
18  | 71:36.13 |  2:39.33 |    322213    |   334170Range status and errorsSelected range     Filename G:\Rips by Alder\Jean-Michel Jarre - Electronica 2- The Heart of Noise [88875196672].wav     Peak level 98.0 %
Extraction speed 7.9 X
Range quality 100.0 %
Test CRC 1138D238
Copy CRC 1138D238
Copy OKNo errors occurredAccurateRip summaryTrack  1  not present in database
Track  2  not present in database
Track  3  not present in database
Track  4  not present in database
Track  5  not present in database
Track  6  not present in database
Track  7  not present in database
Track  8  not present in database
Track  9  not present in database
Track 10  not present in database
Track 11  not present in database
Track 12  not present in database
Track 13  not present in database
Track 14  not present in database
Track 15  not present in database
Track 16  not present in database
Track 17  not present in database
Track 18  not present in databaseNone of the tracks are present in the AccurateRip databaseEnd of status report---- CUETools DB Plugin V2.1.6[CTDB TOCID: Vrvrm.T4LcG_sAP4T4nmEbOh5PA-] disk not present in database
Submit result: Vrvrm.T4LcG_sAP4T4nmEbOh5PA- has been uploaded==== Log checksum 942D5C0E4509CE3506611444CE038EE0C0F57DB73DF3ADB340D62669063E6F39 ====

Cue

REM GENRE Electronic
REM DATE 2016
REM DISCID 2C116712
REM COMMENT "ExactAudioCopy v1.1"
PERFORMER "Jean-Michel Jarre"
TITLE "Electronica 2: The Heart of Noise [88875196672]"
FILE "Jean-Michel Jarre - Electronica 2- The Heart of Noise [88875196672].wv" WAVE
TRACK 01 AUDIO
TITLE "The Heart of Noise, Pt. 1 (feat. Rone)"
PERFORMER "Jean-Michel Jarre"
INDEX 01 00:00:00
TRACK 02 AUDIO
TITLE "The Heart of Noise, Pt. 2"
PERFORMER "Jean-Michel Jarre"
INDEX 01 04:25:47
TRACK 03 AUDIO
TITLE "Brick England (feat. Pet Shop Boys)"
PERFORMER "Jean-Michel Jarre"
INDEX 01 08:35:51
TRACK 04 AUDIO
TITLE "These Creatures (feat. Julia Holter)"
PERFORMER "Jean-Michel Jarre"
INDEX 01 12:36:51
TRACK 05 AUDIO
TITLE "As One (feat. Primal Scream)"
PERFORMER "Jean-Michel Jarre"
INDEX 01 16:17:13
TRACK 06 AUDIO
TITLE "Here For You (feat. Gary Numan)"
PERFORMER "Jean-Michel Jarre"
INDEX 01 20:15:51
TRACK 07 AUDIO
TITLE "Electrees feat. (Hans Zimmer)"
PERFORMER "Jean-Michel Jarre"
INDEX 01 24:14:51
TRACK 08 AUDIO
TITLE "Exit (feat. E.S.)"
PERFORMER "Jean-Michel Jarre"
INDEX 01 28:24:46
TRACK 09 AUDIO
TITLE "What You Want (feat. Peaches)"
PERFORMER "Jean-Michel Jarre"
INDEX 01 34:43:51
TRACK 10 AUDIO
TITLE "Gisele (feat. Sebastian Tellier)"
PERFORMER "Jean-Michel Jarre"
INDEX 01 38:10:51
TRACK 11 AUDIO
TITLE "Swithc on Leon (feat. The Orb)"
PERFORMER "Jean-Michel Jarre"
INDEX 01 41:54:13
TRACK 12 AUDIO
TITLE "Circus feat. Siriusmo"
PERFORMER "Jean-Michel Jarre"
INDEX 01 46:37:11
TRACK 13 AUDIO
TITLE "Why This, Why That and Why (feat. Yello)"
PERFORMER "Jean-Michel Jarre"
INDEX 01 49:46:01
TRACK 14 AUDIO
TITLE "The Architect (feat. Jeff Mills)"
PERFORMER "Jean-Michel Jarre"
INDEX 01 53:44:13
TRACK 15 AUDIO
TITLE "Swipe to the Right (feat. Cyndi Lauper)"
PERFORMER "Jean-Michel Jarre"
INDEX 01 58:27:13
TRACK 16 AUDIO
TITLE "Walking the Mile (feat. Christophe)"
PERFORMER "Jean-Michel Jarre"
INDEX 01 63:21:13
TRACK 17 AUDIO
TITLE "Falling Down"
PERFORMER "Jean-Michel Jarre"
INDEX 01 68:13:13
TRACK 18 AUDIO
TITLE "The Heart of Noise (The Origin)"
PERFORMER "Jean-Michel Jarre"
INDEX 01 71:36:13
-
Яндекс.Метрика
Рейтинг@Mail.ru