(Symphonic Progressive Metal) Midnight Eternal - Midnight Eternal - 2016 [FLAC, image+.cue, lossless]

 

Создавать темы 12-Май-2016 05:32

-Midnight Eternal / Midnight Eternal-- Год издания: 2016
Страна: New York City, New York, USA
Жанр: Symphonic Progressive Metal
Продолжительность: 00:54:52-Лейбл издания: Avalon/Marquee Inc.
Тип альбома: Master
Страна-выпуска диска: Japan
Номер по каталогу: MICP-11282
Источник (релизер): RMT-Формат: FLAC
Битрейт аудио: lossless
Тип рипа: image+.cue
Наличие сканов в содержимом раздачи: да-

Трэклист

01. Till the Bitter End (03:59)
02. Repentance (03:39)
03. Signs of Fire (04:10)
04. Shadow Falls (03:51)
05. The Lantern (03:33)
06. Believe in Forever (02:50)
07. Midnight Eternal (03:22)
08. When Love and Faith Collide (04:33)
09. Like an Eternity (05:02)
10. Silence (03:50)
11. Pilgrim and the Last Voyage (02:07)
12. First Time Thrill (08:53)
13. Masquerade of Lies (Bonus Track) (05:05)
-

Лог создания рипа

Exact Audio Copy V1.1 from 23. June 2015EAC extraction logfile from 3. May 2016, 12:29Midnight Eternal / Midnight EternalUsed drive : ATAPI iHAS122 W Adapter: 2 ID: 0Read mode : Secure
Utilize accurate stream : Yes
Defeat audio cache : Yes
Make use of C2 pointers : NoRead offset correction : 48
Overread into Lead-In and Lead-Out : No
Fill up missing offset samples with silence : Yes
Delete leading and trailing silent blocks : No
Null samples used in CRC calculations : Yes
Used interface : Installed external ASPI interfaceUsed output format : User Defined Encoder
Selected bitrate : 1024 kBit/s
Quality : High
Add ID3 tag : No
Command line compressor : C:\Program Files\FLAC\flac.exe
Additional command line options : -V -8 -T "Date=%year%" -T "Genre=%genre%" -T"COMMENT=Ripped by Ilijan" -8 -V %source%TOC of the extracted CD Track | Start | Length | Start sector | End sector
---------------------------------------------------------
1 | 0:00.00 | 3:59.12 | 0 | 17936
2 | 3:59.12 | 3:38.58 | 17937 | 34344
3 | 7:37.70 | 4:10.36 | 34345 | 53130
4 | 11:48.31 | 3:50.39 | 53131 | 70419
5 | 15:38.70 | 3:33.37 | 70420 | 86431
6 | 19:12.32 | 2:49.60 | 86432 | 99166
7 | 22:02.17 | 3:22.12 | 99167 | 114328
8 | 25:24.29 | 4:32.44 | 114329 | 134772
9 | 29:56.73 | 5:01.42 | 134773 | 157389
10 | 34:58.40 | 3:49.70 | 157390 | 174634
11 | 38:48.35 | 2:06.51 | 174635 | 184135
12 | 40:55.11 | 8:52.53 | 184136 | 224088
13 | 49:47.64 | 5:04.70 | 224089 | 246958Range status and errorsSelected range Filename D:\ilко\Midnight Eternal - Midnight Eternal (Japan).wav Peak level 98.5 %
Extraction speed 3.8 X
Range quality 99.9 %
Test CRC 6F9C869E
Copy CRC 6F9C869E
Copy OKNo errors occurredAccurateRip summaryTrack 1 not present in database
Track 2 not present in database
Track 3 not present in database
Track 4 not present in database
Track 5 not present in database
Track 6 not present in database
Track 7 not present in database
Track 8 not present in database
Track 9 not present in database
Track 10 not present in database
Track 11 not present in database
Track 12 not present in database
Track 13 not present in databaseNone of the tracks are present in the AccurateRip databaseEnd of status report---- CUETools DB Plugin V2.1.6[CTDB TOCID: C7i7ZXGEfgiuk0rmqbfE9mSALvg-] found
Submit result: C7i7ZXGEfgiuk0rmqbfE9mSALvg- has been confirmed
Track | CTDB Status
1 | (2/2) Accurately ripped
2 | (2/2) Accurately ripped
3 | (2/2) Accurately ripped
4 | (2/2) Accurately ripped
5 | (2/2) Accurately ripped
6 | (2/2) Accurately ripped
7 | (2/2) Accurately ripped
8 | (2/2) Accurately ripped
9 | (2/2) Accurately ripped
10 | (2/2) Accurately ripped
11 | (2/2) Accurately ripped
12 | (2/2) Accurately ripped
13 | (2/2) Accurately ripped==== Log checksum B21867D3AEE36A876CC08EBAAB5EAE709E18C4B4A26693DEA0D1BDFDF2393BDD ====
-

Индексная карта (non-compilant .cue)

REM GENRE "Symphonic Metal"
REM DATE 2016
REM DISCID A50CDC0D
REM COMMENT "ExactAudioCopy v1.1"
PERFORMER "Midnight Eternal "
TITLE "Midnight EternaL"
FILE "Midnight Eternal - Midnight Eternal.flac" WAVE
TRACK 01 AUDIO
TITLE "'Till The Bitter End"
PERFORMER "Midnight Eternal "
INDEX 01 00:00:00
TRACK 02 AUDIO
TITLE "Repentance"
PERFORMER "Midnight Eternal "
INDEX 00 03:57:51
INDEX 01 03:59:12
TRACK 03 AUDIO
TITLE "Signs Of Fire"
PERFORMER "Midnight Eternal "
INDEX 00 07:35:70
INDEX 01 07:37:70
TRACK 04 AUDIO
TITLE "Shadow Falls"
PERFORMER "Midnight Eternal "
INDEX 00 11:46:31
INDEX 01 11:48:31
TRACK 05 AUDIO
TITLE "The Lantern"
PERFORMER "Midnight Eternal "
INDEX 00 15:36:70
INDEX 01 15:38:70
TRACK 06 AUDIO
TITLE "Believe In Forever"
PERFORMER "Midnight Eternal "
INDEX 00 19:10:32
INDEX 01 19:12:32
TRACK 07 AUDIO
TITLE "Midnight Eternal"
PERFORMER "Midnight Eternal "
INDEX 00 21:58:45
INDEX 01 22:02:17
TRACK 08 AUDIO
TITLE "When Love And Faith Collide"
PERFORMER "Midnight Eternal "
INDEX 00 25:19:28
INDEX 01 25:24:29
TRACK 09 AUDIO
TITLE "Like An Eternity"
PERFORMER "Midnight Eternal "
INDEX 00 29:54:61
INDEX 01 29:56:73
TRACK 10 AUDIO
TITLE "Silence"
PERFORMER "Midnight Eternal "
INDEX 00 34:56:40
INDEX 01 34:58:40
TRACK 11 AUDIO
TITLE "Pilgrim And The Last Voyage"
PERFORMER "Midnight Eternal "
INDEX 00 38:47:20
INDEX 01 38:48:35
TRACK 12 AUDIO
TITLE "First Time Thrill"
PERFORMER "Midnight Eternal "
INDEX 00 40:54:00
INDEX 01 40:55:11
TRACK 13 AUDIO
TITLE "Masquerade Of Lies (Bonus Track)"
PERFORMER "Midnight Eternal "
INDEX 00 49:41:63
INDEX 01 49:47:64
-

Скриншот спектра частот

--Работаю не за Спасибо , а за ИДЕЮ.-
Яндекс.Метрика
Рейтинг@Mail.ru