[ Сегодня на трекере фрилич! Идет свободное скачивание без начисления Download ]

Колония Дигнидад / Colonia (2015) WEB-DL 1080p | iTunes

 

Создавать темы 11-Май-2016 21:32

Колония Дигнидад / ColoniaГод выпуска: 2015
Страна: Германия, Люксембург, Франция
Жанр: триллер, драма, мелодрама, история-Перевод: Дубляж - [iTunes]
Субтитры: английские (Full)
Продолжительность: 01:49:58-Режиссер: Флориан Галленбергер
В ролях:
Эмма Уотсон (Lena), Даниэль Брюль (Daniel), Микаэл Нюквист (Paul Schäfer), Риченда Кэри (Gisela), Вики Крипс (Ursel), Джинн Вернер (Doro), Джулиан Овенден (Roman), Август Цирнер (German Ambassador), Мартин Вуттке (Niels Biedermann), Николас Барсофф (Jorge), Стив Карьер (Bernd), Штефан Мерки (Rudi)-Описание:
Немецкий журналист Даниэль похищен в Чили тайной полицией и после немыслимых пыток отправлен в колонию «Дигнидад» - огромное поселение, выдающее себя за благотворительную коммуну, а на самом деле гнездо нацистов - беглецов из Третьего рейха. Колонию возглавляет бывший офицер вермахта, бесноватый проповедник Пауль Шефер, внушающий пастве пользу умерщвления плоти и бесплатного труда от заката до рассвета. В «Дигнидад» легко попасть, но обратной дороги нет. Здесь Даниэлю предстоит превратиться в раба и «материал» для бесчеловечных экспериментов.
Но подвиги во имя любви совершают не только мужчины. Девушка Даниэля, отважная стюардесса Лена, решает спасти его. В одиночку. Ради любимого она готова на всё и даже больше. Добровольно, под видом послушницы, Лена отправляется в это страшное место...-Рейтинг:
-Качество: WEB-DL 1080p
Формат: MKV
Видео: AVC, 1904x792 (2.40:1), 4328 kbps, 23,976 fps, 0,120 bpp
Аудио №1: русский / AC3 / 5.1 / 48 kHz / 384 kbps / 16 bit |iTunes|
Аудио №2: английский / AC3 / 5.1 / 48 kHz / 384 kbps / 16 bit
Навигация по главам: есть-

ОтчетМедиаИнфо

General
Unique ID                                : 244553651520664196684767568988010573201 (0xB7FB51EE9E7EAD9AB67A720AD0A9ED91)
Complete name                            : E:TorrentfilmКолония ДигнидадColonia.2015.1080p.D.WEB-DL.mkv
Format                                   : Matroska
Format version                           : Version 4 / Version 2
File size                                : 3.99 GiB
Duration                                 : 1h 49mn
Overall bit rate                         : 5 200 Kbps
Movie name                               : Colonia.2015.1080p.WEB-DL.DD5.1.H264
Encoded date                             : UTC 2016-05-10 23:00:09
Writing application                      : mkvmerge v9.1.0 ('Little Earthquakes') 64bit
Writing library                          : libebml v1.3.3 + libmatroska v1.4.4
DURATION                                 : 01:42:43.489000000
NUMBER_OF_FRAMES                         : 1081
NUMBER_OF_BYTES                          : 25833
_STATISTICS_WRITING_APP                  : mkvmerge v9.1.0 ('Little Earthquakes') 64bit
_STATISTICS_WRITING_DATE_UTC             : 2016-05-10 23:00:09
_STATISTICS_TAGS                         : BPS DURATION NUMBER_OF_FRAMES NUMBER_OF_BYTES
Video
ID                                       : 1
Format                                   : AVC
Format/Info                              : Advanced Video Codec
Format profile                           : [email protected]
Format settings, CABAC                   : Yes
Format settings, ReFrames                : 5 frames
Codec ID                                 : V_MPEG4/ISO/AVC
Duration                                 : 1h 49mn
Bit rate                                 : 4 328 Kbps
Width                                    : 1 904 pixels
Height                                   : 792 pixels
Display aspect ratio                     : 2.40:1
Frame rate                               : 23.976 fps
Color space                              : YUV
Chroma subsampling                       : 4:2:0
Bit depth                                : 8 bits
Scan type                                : Progressive
Bits/(Pixel*Frame)                       : 0.120
Stream size                              : 3.32 GiB (83%)
Language                                 : English
Default                                  : Yes
Forced                                   : No
Color primaries                          : BT.709-5, BT.1361, IEC 61966-2-4, SMPTE RP177
Transfer characteristics                 : BT.709-5, BT.1361
Matrix coefficients                      : BT.709-5, BT.1361, IEC 61966-2-4 709, SMPTE RP177
Audio #1
ID                                       : 2
Format                                   : AC-3
Format/Info                              : Audio Coding 3
Mode extension                           : CM (complete main)
Codec ID                                 : A_AC3
Duration                                 : 1h 49mn
Bit rate mode                            : Constant
Bit rate                                 : 384 Kbps
Channel(s)                               : 6 channels
Channel positions                        : Front: L C R, Side: L R, LFE
Sampling rate                            : 48.0 KHz
Bit depth                                : 16 bits
Compression mode                         : Lossy
Stream size                              : 302 MiB (7%)
Title                                    : iTunes
Language                                 : Russian
Default                                  : Yes
Forced                                   : No
Audio #2
ID                                       : 3
Format                                   : AC-3
Format/Info                              : Audio Coding 3
Mode extension                           : CM (complete main)
Codec ID                                 : A_AC3
Duration                                 : 1h 49mn
Bit rate mode                            : Constant
Bit rate                                 : 384 Kbps
Channel(s)                               : 6 channels
Channel positions                        : Front: L C R, Side: L R, LFE
Sampling rate                            : 48.0 KHz
Bit depth                                : 16 bits
Compression mode                         : Lossy
Stream size                              : 302 MiB (7%)
Title                                    : Original
Language                                 : English
Default                                  : No
Forced                                   : No
Text
ID                                       : 4
Format                                   : UTF-8
Codec ID                                 : S_TEXT/UTF8
Codec ID/Info                            : UTF-8 Plain Text
Title                                    : Full
Language                                 : English
Default                                  : No
Forced                                   : No
Menu
00:00:00.000                             : en:Chapter 1
00:12:00.720                             : en:Chapter 2
00:20:21.220                             : en:Chapter 3
00:29:54.793                             : en:Chapter 4
00:40:16.414                             : en:Chapter 5
00:53:45.222                             : en:Chapter 6
01:00:05.602                             : en:Chapter 7
01:13:43.419                             : en:Chapter 8
01:23:27.002                             : en:Chapter 9
01:31:10.465                             : en:Chapter 10
01:44:28.262                             : en:Chapter 11

Скриншоты:

Яндекс.Метрика
Рейтинг@Mail.ru