Апперкот для Гитлера / Сезон: 1 / Серии: 1-4 из 4 (Денис Нейманд) [2015 г., военный, драма, история, HDTV, 1080i]

 

Создавать темы 11-Май-2016 05:12

-Апперкот для Гитлера-- Производство: Россия
Жанр: военный, драма, история
Год выпуска: 2015 г.
Продолжительность: ~00:45:0Российская премьера:20.06.2015
Режиссер: Денис Нейманд-В ролях: Антон Момот, Полина Толстун, Андрей Лёвин, Сергей Барковский, Вадим Сквирский, Алексей Эйбоженко (мл.), Дмитрий Сутырин, Игорь Черневич, Артур Харитоненко, Наталья Высочанская, Анатолий Дзиваев, Елена Симонова, Владимир Лабецкий, Дмитрий Гудим, Вера Карпова, Жорж Девдариани, Марина Даминева, Оливье Сиу, Дмитрий Лебедев, Татьяна Аптикеева и др-Описание: Основанная на реальных событиях история рассказывает об операции советской разведки по физическому устранению фюрера нацисткой Германии Адольфа Гитлера. Под видом дезертира-перебежчика на задание в Германию направляют выдающегося боксера и разведчика Игоря Миклашевского. Пережив дознания и пытки, Игорь становится личным «гладиатором» штандартенфюрера и азартного игрока Вальтера Шлосса.Нежные чувства к связной — француженке русского происхождения Анастасии Шуваловой — помогают Игорю играть роль «своего» в тылу врага. Побеждая одного соперника за другим, он приближается к высшему обществу Третьего Рейха, а вместе с тем и к своей главной цели — Адольфу Гитлеру.-
Качество видео: HDTV
Контейнер: TS
Стандарт разрешения: 1080i
Видео кодек: H.264
Аудио кодек: AC3
Видео: AVC 6202 Кбит/сек; 25.000 fps; 1920 x 1080 (1.778)
Аудио: 192 Кбит/с, 2 ch, MP2 48,0 КГц
Cубтитры: отсутствуют

Media Info

Общее
Идентификатор : 1 (0x1)
Полное имя : C:\Users\Zhekas\Videos\Apperkot.dlya.Gitlera.[pirat.ca]\Apperkot.dlya.Gitlera.(01.seriya.iz.04).2016.HDTV.(1080i).MediaClub.ts
Формат : MPEG-TS
Размер файла : 2,10 Гбайт
Продолжительность : 44 м.
Режим общего битрейта : Переменный
Общий поток : 6728 Кбит/секВидео
Идентификатор : 201 (0xC9)
Идентификатор меню : 2201 (0x899)
Формат : AVC
Формат/Информация : Advanced Video Codec
Профиль формата : [email protected]/* */
Параметр CABAC формата : Да
Параметр ReFrames формата : 4 кадра
Идентификатор кодека : 27
Продолжительность : 44 м.
Битрейт : 6202 Кбит/сек
Ширина : 1920 пикселей
Высота : 1080 пикселей
Соотношение сторон : 16:9
Частота кадров : 25,000 кадров/сек
Стандарт вещания : Component
Цветовое пространство : YUV
Субдискретизация насыщенности : 4:2:0
Битовая глубина : 8 бит
Тип развёртки : Чересстрочная
Метод сохранения типа развёртки : Раздельные поля
Порядок развёртки : Верхнее поле первое
Бит/(Пиксели*Кадры) : 0.120
Размер потока : 1,93 Гбайт (92%)
Цветовой диапазон : Limited
Основные цвета : BT.709
Характеристики трансфера : BT.709
Коэффициенты матрицы : BT.709Аудио
Идентификатор : 301 (0x12D)
Идентификатор меню : 2201 (0x899)
Формат : MPEG Audio
Версия формата : Version 1
Профиль формата : Layer 2
Идентификатор кодека : 3
Продолжительность : 44 м.
Вид битрейта : Постоянный
Битрейт : 192 Кбит/сек
Каналы : 2 канала
Частота : 48,0 КГц
Метод сжатия : С потерями
Задержка видео : -40 мс.
Размер потока : 61,2 Мбайт (3%)
Язык : English

Скриншоты

Яндекс.Метрика
Рейтинг@Mail.ru