[ Сегодня на трекере фрилич! Идет свободное скачивание без начисления Download ]

Новейший завет / Le tout nouveau testament (Жако ван Дормель / Jaco van Dormael) [2015 г., фэнтези, комедия, BDRip-AVC] Dub

 

Создавать темы 11-Май-2016 05:04

-Новейший завет / Le tout nouveau testament-- Производство: Бельгия, Франция, Люксембург, AprГЁs le DГ©luge, Belga Films Fund, Belga Productions,... (24 студии)
Год выпуска: 2015 г.
Жанр: фэнтези, комедия
Продолжительность: 01:54:34Мировая премьера: 17 мая 2015
Российская премьера: 12 ноября 2015, «Премиум Фильм»
Перевод: Профессиональный (полное дублирование)
Режиссер: Жако ван Дормель / Jaco van Dormael-В ролях: Бенуа Пульворд, Катрин Денёв, Франсуа Дамиенс, Иоланда Моро, Пили Груан, Лаура Верлинден, Серж Ларивье, Дидье Де Нек, Марко Лоренцини, Ромен Желен, Анна Тента, Йохан Хелденберг-Описание: Да, Бог существует. Но он совсем не такой, каким мы его представляли. Он живет в Брюсселе, и у него есть не только сын, но и дочь. Она сбегает из дома и отправляется в наш мир искать приключения и испытывать терпение своего отца на прочность. Надолго ли его хватит?..
Качество видео: BDRip-AVC [HDSky / Blu-ray Remux / 1080p]-
Качество видео: BDRip-AVC
Контейнер: MKV
Видео кодек: MPEG4 AVC
Аудио кодек: AC3
Видео: 1436 Кбит/сек, 1046x438 (2.40:1), 23,976 кадр/сек, AVC
Аудио: русский, 384 Кбит/сек, 48 КГц, 16 бит, 5.1, AC3
Cубтитры: французские, английские
Формат субтитров: softsub (SRT)
Доп. информация о субтитрах: включаемые

Рецензия

Если Бог такой, то это брюссельский Бог
«Новейший Завет» — Le tout nouveau testament. Первые пару-тройку минут ты сидишь в напряжение, потому как бельгийское кино не дает надежды на с толком проведенное время. Но потом фантасмагоричный сюжет захватывает тебя целиком. Безупречный сценарий с диалогами, которые подобно сложнейшему паззлу, идеально вписываются друг в друга. Актерская игра — это вообще нечто. Буффонадный Бенуа Пульворд являет собой именно того Бога, которого многие из нас сегодня упрекают в странных поступках… Катрин Денёв в постели с громадной гориллой настораживает вольной перверсией и легалайзом межвидовой эротики. Большеглазая Пили Груан, кажется, положила на обе лопатки Натали Портман из «Леона» не только своими большими глазами и настоящей непосредственностью, но и тем, что у взрослых называется актерской игрой. И, да, если Бог и существует, то не исключено, что иногда он бывает именно таким, каким оказался в «Новейшем Завете». Или это только брюссельский Бог? В любом случае, фильм очень неожиданный и достойный. Рекомендую категорически
10 из 10

Media Info

Формат : Matroska
Версия формата : Version 2
Размер файла : 1,46 Гбайт
Продолжительность : 1 ч. 54 м.
Общий поток : 1821 Кбит/сек
Название фильма : Le tout nouveau testament (2015)
Дата кодирования : UTC 2016-05-10 13:49:12
Программа кодирования : mkvmerge v5.2.1 ('A Far Off Place') built on Feb 6 2012 10:08:15
Библиотека кодирования : libebml v1.2.3 + libmatroska v1.3.0Видео
Идентификатор : 1
Формат : AVC
Формат/Информация : Advanced Video Codec
Профиль формата : [email protected]/* */
Параметр CABAC формата : Да
Параметр ReFrames формата : 14 кадров
Режим смешивания : Header stripping
Идентификатор кодека : V_MPEG4/ISO/AVC
Продолжительность : 1 ч. 54 м.
Битрейт : 1436 Кбит/сек
Ширина : 1046 пикселей
Высота : 438 пикселей
Соотношение сторон : 2,40:1
Режим частоты кадров : Постоянный
Частота кадров : 23,976 (24000/1001) кадра/сек
Цветовое пространство : YUV
Субдискретизация насыщенности : 4:2:0
Битовая глубина : 8 бит
Тип развёртки : Прогрессивная
Бит/(Пиксели*Кадры) : 0.131
Размер потока : 1,12 Гбайт (77%)
Заголовок : Le tout nouveau testament (2015)
Библиотека кодирования : x264 core 148 r2665kMod a01e339
Настройки программы : cabac=1 / ref=14 / deblock=1:-3:-2 / analyse=0x3:0x133 / me=umh / subme=11 / psy=1 / fade_compensate=0.00 / psy_rd=1.00:0.07 / mixed_ref=1 / me_range=48 / chroma_me=1 / trellis=2 / 8x8dct=1 / cqm=0 / deadzone=21,11 / fast_pskip=0 / chroma_qp_offset=-3 / threads=12 / lookahead_threads=3 / sliced_threads=0 / nr=0 / decimate=0 / interlaced=0 / bluray_compat=0 / constrained_intra=0 / fgo=0 / bframes=15 / b_pyramid=2 / b_adapt=2 / b_bias=0 / direct=3 / weightb=1 / open_gop=0 / weightp=2 / keyint=240 / keyint_min=23 / scenecut=40 / intra_refresh=0 / rc_lookahead=60 / rc=2pass / mbtree=0 / bitrate=1436 / ratetol=1.0 / qcomp=0.70 / qpmin=0 / qpmax=69 / qpstep=4 / cplxblur=20.0 / qblur=0.5 / vbv_maxrate=50000 / vbv_bufsize=62500 / nal_hrd=none / filler=0 / ip_ratio=1.40 / pb_ratio=1.30 / aq=3:0.88
Default : Да
Forced : Нет
Statistics Tags Issue : mkvmerge v8.6.1 ('Flying') 64bit 2016-05-10 11:51:33 / mkvmerge v5.2.1 ('A Far Off Place') built on Feb 6 2012 10:08:15 2016-05-10 13:49:12
FromStats_BitRate : 1436124
FromStats_Duration : 01:54:34.743000000
FromStats_FrameCount : 164829
FromStats_StreamSize : 1234122986Аудио
Идентификатор : 2
Формат : AC-3
Формат/Информация : Audio Coding 3
Расширение режима : CM (complete main)
Параметр Endianness формата : Big
Режим смешивания : Header stripping
Идентификатор кодека : A_AC3
Продолжительность : 1 ч. 54 м.
Вид битрейта : Постоянный
Битрейт : 384 Кбит/сек
Каналы : 6 каналов
Расположение каналов : Front: L C R, Side: L R, LFE
Частота : 48,0 КГц
Частота кадров : 31,250 кадров/сек (1536 spf)
Метод сжатия : С потерями
Размер потока : 315 Мбайт (21%)
Язык : Russian
Default : Да
Forced : Нет
Statistics Tags Issue : mkvmerge v8.6.1 ('Flying') 64bit 2016-05-10 11:51:33 / mkvmerge v5.2.1 ('A Far Off Place') built on Feb 6 2012 10:08:15 2016-05-10 13:49:12
FromStats_BitRate : 384000
FromStats_Duration : 01:54:34.624000000
FromStats_FrameCount : 214832
FromStats_StreamSize : 329981952Текст #1
Идентификатор : 3
Формат : UTF-8
Идентификатор кодека : S_TEXT/UTF8
Идентификатор кодека/Информация : UTF-8 Plain Text
Язык : French
Default : Нет
Forced : Нет
Statistics Tags Issue : mkvmerge v8.6.1 ('Flying') 64bit 2016-05-10 11:51:33 / mkvmerge v5.2.1 ('A Far Off Place') built on Feb 6 2012 10:08:15 2016-05-10 13:49:12
FromStats_BitRate : 72
FromStats_Duration : 01:52:40.302000000
FromStats_FrameCount : 859
FromStats_StreamSize : 61250Текст #2
Идентификатор : 4
Формат : UTF-8
Идентификатор кодека : S_TEXT/UTF8
Идентификатор кодека/Информация : UTF-8 Plain Text
Язык : English
Default : Нет
Forced : Нет
Statistics Tags Issue : mkvmerge v8.6.1 ('Flying') 64bit 2016-05-10 11:51:33 / mkvmerge v5.2.1 ('A Far Off Place') built on Feb 6 2012 10:08:15 2016-05-10 13:49:12
FromStats_BitRate : 41
FromStats_Duration : 01:54:20.105000000
FromStats_FrameCount : 894
FromStats_StreamSize : 35171Меню
00:00:00.000 : en:Chapter 1
00:08:49.611 : en:Chapter 2
00:21:26.285 : en:Chapter 3
00:33:01.479 : en:Chapter 4
00:41:06.713 : en:Chapter 5
00:49:25.460 : en:Chapter 6
01:03:59.043 : en:Chapter 7
01:14:49.318 : en:Chapter 8
01:28:17.375 : en:Chapter 9
01:39:27.920 : en:Chapter 10
01:48:34.882 : en:Chapter 11

Скриншот c названием фильма

Скриншоты

Трейлер

Яндекс.Метрика
Рейтинг@Mail.ru