[ Сегодня на трекере фрилич! Идет свободное скачивание без начисления Download ]

Путь на юг / Southbound (Роксанна Бенжамин / Roxanne Benjamin, ...) [2015 г., ужасы, фантастика, триллер, WEB-DL, 720p] VO (Д. Есарев)+ Original (Eng) + Sub (Eng)

 

Создавать темы 11-Май-2016 05:01

-Путь на юг / Southbound
«No matter which road you choose, it's all going south.»
-- Производство: США
Год выпуска: 2015 г.
Жанр: ужасы, фантастика, триллер
Продолжительность: 01:29:03Перевод: Любительский (одноголосый, закадровый) [Д. Есарев]
Оригинальный аудиопоток: английскийРежиссер: Роксанна Бенжамин / Roxanne Benjamin, ...-В ролях: Чад Виллелла, Мэттью Беттинелли, Кристина Пешич, Фаббианн Терез, Натали Лав, Ханна Маркс, Дэна Гулд, Энесса Ремси, Сьюзэн Бурк, Дэйв Джонсон-Описание: Пустынный участок дороги, усталые путники – двое мужчин, бегущих от своего прошлого, группа на пути к следующему концерту, человек пытающийся попасть домой, брат в поисках давно потерянной сестры и семьи на отдыхе – вынуждены противостоять своим страхам и самым темным тайнам, чтобы раскаяться на дороге.- - -Качество видео: WEB-DL
Контейнер: MKV
Стандарт разрешения: 720p
Видео кодек: H.264/AVC
Аудио кодек: AC3
Видео: 1280x544 at 23.976 fps, ~4000 kbps avg
Аудио: Russian: 48 kHz, AC3, 3/2 (L,C,R,l,r) + LFE ch, ~448 kbps avg |Одноголосый закадровый, Д. Есарев|
Аудио #2: Russian: 48 kHz, AC3, 3/2 (L,C,R,l,r) + LFE ch, ~448 kbps avg |Одноголосый закадровый, Д. Есарев (нецензурный)|
Аудио #3: English: 48 kHz, AC3, 3/2 (L,C,R,l,r) + LFE ch, ~384 kbps avgCубтитры: английские

Media Info

Код:
Format                      : Matroska
Format version              : Version 4 / Version 2
File size                   : 3.30 GiB
Duration                    : 1h 29mn
Overall bit rate            : 5 305 Kbps
Movie name                  : Southbound (2015)
Encoded date                : UTC 2016-05-08 12:27:22
Writing application         : mkvmerge v8.2.0 ('World of Adventure') 64bit
Writing library             : libebml v1.3.1 + libmatroska v1.4.2
Attachements                : cover.jpg
DURATION                    : 01:25:18.647000000
NUMBER_OF_FRAMES            : 868
NUMBER_OF_BYTES             : 26839
_STATISTICS_WRITING_APP     : mkvmerge v8.2.0 ('World of Adventure') 64bit
_STATISTICS_WRITING_DATE_UT : 2016-05-08 12:27:22
_STATISTICS_TAGS            : BPS DURATION NUMBER_OF_FRAMES NUMBER_OF_BYTESVideo
ID                          : 1
Format                      : AVC
Format/Info                 : Advanced Video Codec
Format profile              : [email protected]/*  */
Format settings, CABAC      : No
Format settings, ReFrames   : 2 frames
Codec ID                    : V_MPEG4/ISO/AVC
Duration                    : 1h 29mn
Bit rate                    : 3 920 Kbps
Width                       : 1 280 pixels
Height                      : 544 pixels
Display aspect ratio        : 2.35:1
Frame rate mode             : Constant
Frame rate                  : 23.976 fps
Color space                 : YUV
Chroma subsampling          : 4:2:0
Bit depth                   : 8 bits
Scan type                   : Progressive
Bits/(Pixel*Frame)          : 0.235
Stream size                 : 2.44 GiB (74%)
Title                       : Release for HDCLUB
Language                    : English
Default                     : No
Forced                      : No
Color primaries             : BT.709
Transfer characteristics    : BT.709
Matrix coefficients         : BT.709
Color range                 : LimitedAudio #1
ID                          : 2
Format                      : AC-3
Format/Info                 : Audio Coding 3
Mode extension              : CM (complete main)
Format settings, Endianness : Big
Codec ID                    : A_AC3
Duration                    : 1h 29mn
Bit rate mode               : Constant
Bit rate                    : 448 Kbps
Channel(s)                  : 6 channels
Channel positions           : Front: L C R, Side: L R, LFE
Sampling rate               : 48.0 KHz
Bit depth                   : 16 bits
Compression mode            : Lossy
Stream size                 : 285 MiB (8%)
Title                       : Есарев
Language                    : Russian
Default                     : Yes
Forced                      : NoAudio #2
ID                          : 3
Format                      : AC-3
Format/Info                 : Audio Coding 3
Mode extension              : CM (complete main)
Format settings, Endianness : Big
Codec ID                    : A_AC3
Duration                    : 1h 29mn
Bit rate mode               : Constant
Bit rate                    : 448 Kbps
Channel(s)                  : 6 channels
Channel positions           : Front: L C R, Side: L R, LFE
Sampling rate               : 48.0 KHz
Bit depth                   : 16 bits
Compression mode            : Lossy
Stream size                 : 285 MiB (8%)
Title                       : Есарев, нецензурный
Language                    : Russian
Default                     : No
Forced                      : NoAudio #3
ID                          : 4
Format                      : AC-3
Format/Info                 : Audio Coding 3
Mode extension              : CM (complete main)
Format settings, Endianness : Big
Codec ID                    : A_AC3
Duration                    : 1h 29mn
Bit rate mode               : Constant
Bit rate                    : 384 Kbps
Channel(s)                  : 6 channels
Channel positions           : Front: L C R, Side: L R, LFE
Sampling rate               : 48.0 KHz
Bit depth                   : 16 bits
Compression mode            : Lossy
Stream size                 : 245 MiB (7%)
Language                    : English
Default                     : No
Forced                      : NoText
ID                          : 5
Format                      : UTF-8
Codec ID                    : S_TEXT/UTF8
Codec ID/Info               : UTF-8 Plain Text
Language                    : English
Default                     : No
Forced                      : NoMenu
00:00:00.000                : en:The Way Out
00:12:52.000                : en:Siren
00:33:20.000                : en:The Accident
00:52:56.000                : en:Jailbreak
01:06:28.000                : en:The Way In

Скриншот c названием фильма

Скриншоты

Яндекс.Метрика
Рейтинг@Mail.ru