И грянул шторм / The Finest Hours (2016) BDRip 720p | Line

 

Создавать темы 10-Май-2016 23:28

Информация о фильме
Название: И грянул шторм
Оригинальное название: The Finest Hours
Год выпуска: 2016
Страна: США
Жанр: боевик, триллер, драма, история-Перевод: Дубляж - [Line] tnx SergeyVideoGid
Примечание: релиз без рекламы
Субтитры: русские (Full), английские (Full)
Продолжительность: 01:57:18-Режиссер: Крэйг Гиллеспи
В ролях: Крис Пайн (Bernie Webber), Кейси Аффлек (Ray Sybert), Бен Фостер (Richard Livesey), Эрик Бана (Daniel Cluff), Холлидей Грейнджер (Miriam Webber), Джон Ортис (Wallace Quirey), Кайл Галлнер (Andy Fitzgerald), Джон Магаро (Ervin Maske), Грэм МакТавиш (Frank Fauteux), Майкл Рэймонд-Джеймс (D.A. Brown), Бо Напп (Mel Gouthro), Джош Стюарт (Tchuda Southerland)-Описание:
Сюжет фильма основан на реальных событиях, произошедших в 1952 году, когда сотрудники береговой охраны в самый разгар шторма, используя деревянные моторные лодки, пытались спасти экипаж двух нефтяных танкеров.-Рейтинг:

MPAA: PG-13 - Детям до 13 лет просмотр не желателен-Качество: BDRip 720p
Формат: MKV
Видео: AVC, 1280x536 (2.40:1), 5159 kbps, 23,976 fps, 0,314 bpp
Аудио №1: русский / AC3 / 2.0 / 48 kHz / 384 kbps / 16 bit |Line|
Аудио №2: английский / DTS / 5.1 / 48 kHz / 1510 kbps / 24 bit
Навигация по главам: есть
Семпл-

ОтчетМедиаИнфо

General
Unique ID : 230541761057908861572292448066675242491 (0xAD70BA651C36CB2B9C859A2050FD75FB)
Complete name : E:The.Finest.Hours.2016.BDRip.720p.mkv
Format : Matroska
Format version : Version 4 / Version 2
File size : 5.78 GiB
Duration : 1h 57mn
Overall bit rate : 7 053 Kbps
Movie name : И грянул шторм (2016) BDRip 720р
Encoded date : UTC 2016-05-10 20:21:08
Writing application : mkvmerge v9.1.0 ('Little Earthquakes') 64bit
Writing library : libebml v1.3.3 + libmatroska v1.4.4
DURATION : 01:49:04.691000000
NUMBER_OF_FRAMES : 912
NUMBER_OF_BYTES : 32470
_STATISTICS_WRITING_APP : mkvmerge v9.1.0 ('Little Earthquakes') 64bit
_STATISTICS_WRITING_DATE_UTC : 2016-05-10 20:21:08
_STATISTICS_TAGS : BPS DURATION NUMBER_OF_FRAMES NUMBER_OF_BYTES
Video
ID : 1
Format : AVC
Format/Info : Advanced Video Codec
Format profile : [email protected]
Format settings, CABAC : Yes
Format settings, ReFrames : 5 frames
Codec ID : V_MPEG4/ISO/AVC
Duration : 1h 57mn
Bit rate : 5 159 Kbps
Width : 1 280 pixels
Height : 536 pixels
Display aspect ratio : 2.40:1
Frame rate : 23.976 fps
Color space : YUV
Chroma subsampling : 4:2:0
Bit depth : 8 bits
Scan type : Progressive
Bits/(Pixel*Frame) : 0.314
Stream size : 4.11 GiB (71%)
Writing library : x264 core 148 r2692 64f4e24
Encoding settings : cabac=1 / ref=5 / deblock=1:0:0 / analyse=0x3:0x133 / me=umh / subme=7 / psy=1 / psy_rd=1.00:0.00 / mixed_ref=1 / me_range=16 / chroma_me=1 / trellis=1 / 8x8dct=1 / cqm=0 / deadzone=21,11 / fast_pskip=0 / chroma_qp_offset=-2 / threads=12 / lookahead_threads=2 / sliced_threads=0 / nr=0 / decimate=1 / interlaced=0 / bluray_compat=0 / constrained_intra=0 / bframes=3 / b_pyramid=2 / b_adapt=1 / b_bias=0 / direct=1 / weightb=1 / open_gop=0 / weightp=2 / keyint=250 / keyint_min=23 / scenecut=40 / intra_refresh=0 / rc_lookahead=40 / rc=2pass / mbtree=1 / bitrate=5159 / ratetol=1.0 / qcomp=0.60 / qpmin=0 / qpmax=69 / qpstep=4 / cplxblur=20.0 / qblur=0.5 / ip_ratio=1.40 / aq=1:1.00
Language : English
Default : Yes
Forced : No
DURATION : 01:57:18.543000000
NUMBER_OF_FRAMES : 168756
NUMBER_OF_BYTES : 4537629680
_STATISTICS_WRITING_APP : mkvmerge v9.1.0 ('Little Earthquakes') 64bit
_STATISTICS_WRITING_DATE_UTC : 2016-05-10 20:21:08
_STATISTICS_TAGS : BPS DURATION NUMBER_OF_FRAMES NUMBER_OF_BYTES
Audio #1
ID : 2
Format : AC-3
Format/Info : Audio Coding 3
Mode extension : CM (complete main)
Codec ID : A_AC3
Duration : 1h 57mn
Bit rate mode : Constant
Bit rate : 384 Kbps
Channel(s) : 2 channels
Channel positions : Front: L R
Sampling rate : 48.0 KHz
Bit depth : 16 bits
Compression mode : Lossy
Delay relative to video : 524ms
Stream size : 322 MiB (5%)
Title : Line
Language : Russian
Default : Yes
Forced : No
Audio #2
ID : 3
Format : DTS
Format/Info : Digital Theater Systems
Codec ID : A_DTS
Duration : 1h 57mn
Bit rate mode : Constant
Bit rate : 1 510 Kbps
Channel(s) : 6 channels
Channel positions : Front: L C R, Side: L R, LFE
Sampling rate : 48.0 KHz
Bit depth : 24 bits
Compression mode : Lossy
Stream size : 1.24 GiB (21%)
Title : Original
Language : English
Default : No
Forced : No
Text #1
ID : 4
Format : UTF-8
Codec ID : S_TEXT/UTF8
Codec ID/Info : UTF-8 Plain Text
Title : Full
Language : Russian
Default : No
Forced : No
Text #2
ID : 5
Format : UTF-8
Codec ID : S_TEXT/UTF8
Codec ID/Info : UTF-8 Plain Text
Title : Full
Language : English
Default : No
Forced : No
Menu
00:00:00.000 : en:00:00:00.000
00:09:13.887 : en:00:09:13.887
00:14:22.195 : en:00:14:22.195
00:19:52.108 : en:00:19:52.108
00:22:56.792 : en:00:22:56.792
00:28:34.379 : en:00:28:34.379
00:34:05.210 : en:00:34:05.210
00:36:59.384 : en:00:36:59.384
00:42:50.902 : en:00:42:50.902
00:45:01.157 : en:00:45:01.157
00:46:59.442 : en:00:46:59.442
00:48:44.463 : en:00:48:44.463
00:50:12.551 : en:00:50:12.551
00:55:53.141 : en:00:55:53.141
01:04:47.967 : en:01:04:47.967
01:08:58.634 : en:01:08:58.634
01:11:38.836 : en:01:11:38.836
01:16:16.489 : en:01:16:16.489
01:20:30.325 : en:01:20:30.325
01:33:30.480 : en:01:33:30.480
01:42:27.641 : en:01:42:27.641
01:49:40.324 : en:01:49:40.324

Скриншоты

Яндекс.Метрика
Рейтинг@Mail.ru