Я – учитель (2016) HDTVRip-AVC от New-Team

 

Создавать темы 10-Май-2016 13:03

Я – учитель

Страна: Россия
Жанр: драма, военный, история
Год выпуска: 2016
Продолжительность: 01:25:45
Перевод: Не требуется (русский)
Cубтитры: нет
Оригинальная аудиодорожка: русский
Режиссер: Сергей Мокрицкий
В ролях: Александр Ковтунец, Юлия Пересильд, Андрей Смоляков, Борис Каморзин, Филипп Рейнхардт, Сергей Походаев, Владислав Абашин, Светлана Осадченко
Описание:
Жить в непростых военных условиях простому сельскому учителю Павлу Зубову давала вера в свой долг - учить детей. Не важно где, не важно кто они - это его призвание, его крест. Вера в любовь и семью, в простые человеческие ценности. Но, в одночасье, череда событий в корне меняет его жизнь, возвращая в реальный мир. В мир, где идёт война, где враг демонстрирует своё истинное лицо, и где невозможно бездействовать, оставаясь тихим учителем, надо бороться за свою семью, любовь, Родину, за свои идеалы и принципы. Перед ним встает непростой духовный и нравственный выбор - либо выживать и приспосабливаться, либо не предавать самого себя и своих близких.
Релиз:
Автор рипа: Stalker oK
Сэмпл
Качество видео: HDTVRip-AVC [HDTV / 1080i]
Формат видео: MKV
Видео кодек: AVC
Аудио кодек: AAC
Видео: 1151 Кбит/сек, 752*422 (16:9), в 25,000 кадров/сек, AVC
Аудио: 64,0 Кбит/сек, 48,0 КГц / 24,0 КГц, 2 канала, AAC (HE-AAC / LC)

MediaInfo

Общее
Уникальный идентификатор : 239948020143831825234660648407968903279 (0xB4844EC606C5086BAA072BC3B871F06F)
Полное имя : M:1WEB-DLJa - UchitelJa-uchitel.2016.HDTVRip-AVC.745Mb.stalkerok.new-team.mkv
Формат : Matroska
Версия формата : Version 4 / Version 2
Размер файла : 746 Мбайт
Продолжительность : 1 ч. 25 м.
Общий поток : 1216 Кбит/сек
Название фильма : Я – учитель (2016) (New-Team) (Rip by Stalker oK)
Дата кодирования : UTC 2016-05-10 09:56:37
Программа кодирования : mkvmerge v8.6.1 ('Flying') 64bit
Библиотека кодирования : libebml v1.3.3 + libmatroska v1.4.4
Видео
Идентификатор : 1
Формат : AVC
Формат/Информация : Advanced Video Codec
Профиль формата : [email protected]
Параметр CABAC формата : Да
Параметр ReFrames формата : 16 кадров
Идентификатор кодека : V_MPEG4/ISO/AVC
Продолжительность : 1 ч. 25 м.
Битрейт : 1151 Кбит/сек
Ширина : 752 пикселя
Высота : 422 пикселя
Соотношение сторон : 16:9
Режим частоты кадров : Постоянный
Частота кадров : 25,000 кадров/сек
Цветовое пространство : YUV
Субдискретизация насыщенности : 4:2:0
Битовая глубина : 8 бит
Тип развёртки : Прогрессивная
Бит/(Пиксели*Кадры) : 0.145
Размер потока : 706 Мбайт (95%)
Заголовок : Я – учитель (2016) (New-Team) (Rip by Stalker oK)
Библиотека кодирования : x264 core 148 r2665kMod a01e339
Настройки программы : cabac=1 / ref=16 / deblock=1:-3:-2 / analyse=0x3:0x133 / me=umh / subme=11 / psy=1 / fade_compensate=0.00 / psy_rd=1.00:0.05 / mixed_ref=1 / me_range=48 / chroma_me=1 / trellis=2 / 8x8dct=1 / cqm=0 / deadzone=21,11 / fast_pskip=0 / chroma_qp_offset=-3 / threads=12 / lookahead_threads=3 / sliced_threads=0 / nr=0 / decimate=0 / interlaced=0 / bluray_compat=0 / constrained_intra=0 / fgo=0 / bframes=16 / b_pyramid=2 / b_adapt=2 / b_bias=0 / direct=3 / weightb=1 / open_gop=0 / weightp=2 / keyint=250 / keyint_min=25 / scenecut=40 / intra_refresh=0 / rc_lookahead=60 / rc=2pass / mbtree=0 / bitrate=1151 / ratetol=1.0 / qcomp=0.70 / qpmin=0 / qpmax=69 / qpstep=4 / cplxblur=20.0 / qblur=0.5 / vbv_maxrate=50000 / vbv_bufsize=62500 / nal_hrd=none / filler=0 / ip_ratio=1.40 / pb_ratio=1.30 / aq=3:0.93
Default : Да
Forced : Нет
Аудио
Идентификатор : 2
Формат : AAC
Формат/Информация : Advanced Audio Codec
Профиль формата : HE-AAC / LC
Идентификатор кодека : A_AAC
Продолжительность : 1 ч. 25 м.
Битрейт : 64,0 Кбит/сек
Каналы : 2 канала
Расположение каналов : Front: L R
Частота : 48,0 КГц / 24,0 КГц
Частота кадров : 23,438 кадра/сек (1024 spf)
Метод сжатия : С потерями
Задержка видео : 31 мс.
Размер потока : 39,3 Мбайт (5%)
Язык : Russian
Default : Да
Forced : Нет
-
Яндекс.Метрика
Рейтинг@Mail.ru