[ Сегодня на трекере фрилич! Идет свободное скачивание без начисления Download ]

Бессмертный полк. Крым (2016.05.09) SATRip

 

Создавать темы 09-Май-2016 17:01

- Бессмертный полк. Крым (2016.05.09) SATRip - Производство: НТВ
Жанр: Документальный
Описание:
На НТВ — шествие «Бессмертного полка» в Крыму.
Грандиозная патриотическая акция «Бессмертный полк» проходит по всей России. На полуострове ее устраивали в четвертый раз. По центральным улицам крымских городов прошли тысячи человек с портретами своих дедов и прадедов, а также ветераны. Праздничная колонна «Бессмертного полка» в крымской столице впервые маршировала под торжественное сопровождение оркестра.
Релиз от: Taz
Продолжительность: 01:20:04
Качество видео: SATRip
Субтитры: Отсутствуют
Видео: MPEG4, XviD, 720x400 (16:9), 25.000 fps, 1 798 Kbps (0.250 bit/pixel)
Аудио: MP3, 48.0 KHz, 2 ch, 128 Kbps, CBR

Mediainfo:

Формат                                   : AVI
Формат/Информация                        : Audio Video Interleave
Размер файла                             : 1,08 Гбайт
Продолжительность                        : 1 ч. 20 м.
Общий поток                              : 1936 Кбит/сек
Программа кодирования                    : VirtualDubMod 1.5.10.3 | [url=http://www.virtualdub-fr.org]www.virtualdub-fr.org[/url] || (build 2550/release)
Библиотека кодирования                   : VirtualDubMod build 2550/release
Видео
Идентификатор                            : 0
Формат                                   : MPEG-4 Visual
Профиль формата                          : Advanced [email protected]
Параметр BVOP формата                    : 2
Параметр QPel формата                    : Нет
Параметр GMC формата                     : Без точки перехода
Параметр матрицы формата                 : Default (H.263)
Идентификатор кодека                     : XVID
Идентификатор кодека/Подсказка           : XviD
Продолжительность                        : 1 ч. 20 м.
Битрейт                                  : 1798 Кбит/сек
Ширина                                   : 720 пикселей
Высота                                   : 400 пикселей
Соотношение сторон                       : 16:9
Частота кадров                           : 25,000 кадров/сек
Цветовое пространство                    : YUV
Субдискретизация насыщенности            : 4:2:0
Битовая глубина                          : 8 бит
Тип развёртки                            : Прогрессивная
Метод сжатия                             : С потерями
Бит/(Пиксели*Кадры)                      : 0.250
Размер потока                            : 1,01 Гбайт (93%)
Библиотека кодирования                   : XviD 1.2.1 (UTC 2008-12-04)
Аудио
Идентификатор                            : 1
Формат                                   : MPEG Audio
Версия формата                           : Version 1
Профиль формата                          : Layer 3
Режим                                    : Joint stereo
Расширение режима                        : MS Stereo
Идентификатор кодека                     : 55
Идентификатор кодека/Подсказка           : MP3
Продолжительность                        : 1 ч. 20 м.
Вид битрейта                             : Постоянный
Битрейт                                  : 128 Кбит/сек
Каналы                                   : 2 канала
Частота                                  : 48,0 КГц
Метод сжатия                             : С потерями
Размер потока                            : 73,3 Мбайт (7%)
Выравнивание                             : Соединение по промежуткам
Продолжительность промежутка             : 40  мс. (1,00 видеокадр)
Время предзагрузки промежутка            : 504  мс.
Библиотека кодирования                   : LAME3.99r
Настройки программы                      : -m j -V 4 -q 9 -lowpass 17 -b 128
Скриншоты:
Яндекс.Метрика
Рейтинг@Mail.ru