[ Сегодня на трекере фрилич! Идет свободное скачивание без начисления Download ]

Дэдпул / Deadpool (2016) BDRip [H.264]

 

Создавать темы 08-Май-2016 15:36

-Дэдпул / Deadpool (2016) BDRip [H.264]
« Стань свидетелем, как он кончит »
- Производство: США, Канада / 20th Century Fox Film Corporation, Donners' Company, Kinberg Genre, Marvel Entertainment, TSG Entertainment
Жанр: Фантастика, Боевик, Комедия, Приключения
Режиссер: Тим Миллер
Актеры: Райан Рейнольдс, Морена Баккарин, Эд Скрейн, ТиДжей Миллер, Джина Карано, Брианна Хилдебранд, Стефан Капичич, Лесли Уггэмс, Джед Риис, Каран Сони, Майкл Беняер, Стайл Дэйн, Кайл Кэсси, Тэйлор Хиксон, Наика Туссэн, Рендал Ридер
Описание: Уэйд Уилсон - наёмник. Будучи побочным продуктом программы вооружённых сил под названием «Оружие X», Уилсон приобрёл невероятную силу, проворство и способность к исцелению. Но страшной ценой: его клеточная структура постоянно меняется, а здравомыслие сомнительно. Всё, чего Уилсон хочет, это держаться на плаву в социальной выгребной яме. Но течение в ней слишком быстрое.-Возраст: 18+ (зрителям, достигшим 18 лет. запрещено для детей)
Рейтинг MPAA: R (лицам до 17 лет обязательно присутствие взрослого)
Дата мировой премьеры: 21 января 2016
Дата российской премьеры: 11 февраля 2016, «Двадцатый Век Фокс СНГ»
Продолжительность: 01:48:06
Качество видео: BDRip
Перевод: Дублированный, авторский (одноголосый закадровый), любительский (одноголосый закадровый) х2
Вид субтитров: Вшитые, отключаемые
Язык субтитров: Русский (Forced, Full), Английский
Видео: MPEG-4 AVC/H.264, 1994 Kbps, 1046x438
Аудио 1: Русский AC3 5.1, 448 Kbps, 48.0 KHz (Дублированный) Blu-ray CEE
Аудио 2: Русский AC3 2.0, 192 Kbps, 48.0 KHz (Одноголосый закадровый) В. Замез 1
Аудио 3: Русский AC3 2.0, 192 Kbps, 48.0 KHz (Одноголосый закадровый) В. Замез 2
Аудио 4: Русский AC3 5.1, 448 Kbps, 48.0 KHz (Одноголосый закадровый) Е. Гаевский
Аудио 5: Английский AC3 5.1, 448 Kbps, 48.0 KHz (Оригинал)

MediaInfo

Общее
Полное имя                               : Дэдпул.mkv
Формат                                   : Matroska
Версия формата                           : Version 1
Размер файла                             : 2,81 Гбайт
Продолжительность                        : 1 ч. 48 м.
Общий поток                              : 3721 Кбит/сек
Дата кодирования                         : UTC 2016-05-08 08:41:21
Программа кодирования                    : mkvmerge v2.4.1 ('Use Me') built on Dec  5 2008 18:30:05
Библиотека кодирования                   : libebml v0.7.7 + libmatroska v0.8.1
Видео
Идентификатор                            : 1
Формат                                   : AVC
Формат/Информация                        : Advanced Video Codec
Профиль формата                          : [url=mailto:[email protected]][email protected][/url]
Параметр CABAC формата                   : Да
Параметр ReFrames формата                : 14 кадров
Идентификатор кодека                     : V_MPEG4/ISO/AVC
Продолжительность                        : 1 ч. 48 м.
Битрейт                                  : 1994 Кбит/сек
Ширина                                   : 1046 пикселей
Высота                                   : 438 пикселей
Соотношение сторон                       : 2,40:1
Режим частоты кадров                     : Постоянный
Частота кадров                           : 23,976 (24000/1001) кадра/сек
Цветовое пространство                    : YUV
Субдискретизация насыщенности            : 4:2:0
Битовая глубина                          : 8 бит
Тип развёртки                            : Прогрессивная
Бит/(Пиксели*Кадры)                      : 0.182
Размер потока                            : 1,45 Гбайт (52%)
Заголовок                                : Дэдпул (2016)
Библиотека кодирования                   : x264 core 148 r2692 64f4e24
Настройки программы                      : cabac=1 / ref=14 / deblock=1:-2:-1 / analyse=0x3:0x133 / me=umh / subme=11 / psy=1 / psy_rd=1.00:0.00 / mixed_ref=1 / me_range=32 / chroma_me=1 / trellis=2 / 8x8dct=1 / cqm=0 / deadzone=21,11 / fast_pskip=0 / chroma_qp_offset=-2 / threads=12 / lookahead_threads=3 / sliced_threads=0 / nr=0 / decimate=0 / interlaced=0 / bluray_compat=0 / constrained_intra=0 / bframes=10 / b_pyramid=2 / b_adapt=2 / b_bias=0 / direct=3 / weightb=1 / open_gop=0 / weightp=2 / keyint=240 / keyint_min=22 / scenecut=40 / intra_refresh=0 / rc_lookahead=60 / rc=2pass / mbtree=0 / bitrate=1994 / ratetol=1.0 / qcomp=0.65 / qpmin=0 / qpmax=69 / qpstep=4 / cplxblur=20.0 / qblur=0.5 / vbv_maxrate=50000 / vbv_bufsize=62500 / nal_hrd=none / filler=0 / ip_ratio=1.40 / pb_ratio=1.30 / aq=3:0.80 / zones=71,577,b=1.8/622,907,b=1.8/76048,76135,b=1.8/145303,147575,b=1.8
Язык                                     : English
Default                                  : Да
Forced                                   : Нет
Statistics Tags Issue                    : mkvmerge v9.1.0 ('Little Earthquakes') 64bit 2016-05-08 06:06:19 / mkvmerge v2.4.1 ('Use Me') built on Dec  5 2008 18:30:05 2016-05-08 08:41:21
FromStats_BitRate                        : 1993433
FromStats_Duration                       : 01:48:06.230000000
FromStats_FrameCount                     : 155514
FromStats_StreamSize                     : 1616233380
Аудио #1
Идентификатор                            : 2
Формат                                   : AC-3
Формат/Информация                        : Audio Coding 3
Расширение режима                        : CM (complete main)
Параметр Endianness формата              : Big
Идентификатор кодека                     : A_AC3
Продолжительность                        : 1 ч. 48 м.
Вид битрейта                             : Постоянный
Битрейт                                  : 448 Кбит/сек
Каналы                                   : 6 каналов
Расположение каналов                     : Front: L C R, Side: L R, LFE
Частота                                  : 48,0 КГц
Частота кадров                           : 31,250 кадров/сек (1536 spf)
Метод сжатия                             : С потерями
Размер потока                            : 347 Мбайт (12%)
Заголовок                                : AC3 (Дублированный) Blu-ray CEE
Язык                                     : Russian
Default                                  : Да
Forced                                   : Нет
Statistics Tags Issue                    : mkvmerge v9.1.0 ('Little Earthquakes') 64bit 2016-05-08 06:06:19 / mkvmerge v2.4.1 ('Use Me') built on Dec  5 2008 18:30:05 2016-05-08 08:41:21
FromStats_BitRate                        : 448000
FromStats_Duration                       : 01:48:06.240000000
FromStats_FrameCount                     : 202695
FromStats_StreamSize                     : 363229440
Аудио #2
Идентификатор                            : 3
Формат                                   : AC-3
Формат/Информация                        : Audio Coding 3
Расширение режима                        : CM (complete main)
Параметр Endianness формата              : Big
Идентификатор кодека                     : A_AC3
Продолжительность                        : 1 ч. 48 м.
Вид битрейта                             : Постоянный
Битрейт                                  : 192 Кбит/сек
Каналы                                   : 2 канала
Расположение каналов                     : Front: L R
Частота                                  : 48,0 КГц
Частота кадров                           : 31,250 кадров/сек (1536 spf)
Метод сжатия                             : С потерями
Размер потока                            : 149 Мбайт (5%)
Заголовок                                : AC3 (Одноголосый) В. Замез 1
Язык                                     : Russian
Default                                  : Нет
Forced                                   : Нет
Аудио #3
Идентификатор                            : 4
Формат                                   : AC-3
Формат/Информация                        : Audio Coding 3
Расширение режима                        : CM (complete main)
Параметр Endianness формата              : Big
Идентификатор кодека                     : A_AC3
Продолжительность                        : 1 ч. 48 м.
Вид битрейта                             : Постоянный
Битрейт                                  : 192 Кбит/сек
Каналы                                   : 2 канала
Расположение каналов                     : Front: L R
Частота                                  : 48,0 КГц
Частота кадров                           : 31,250 кадров/сек (1536 spf)
Метод сжатия                             : С потерями
Размер потока                            : 149 Мбайт (5%)
Заголовок                                : AC3 (Одноголосый) В. Замез 2
Язык                                     : Russian
Default                                  : Нет
Forced                                   : Нет
Аудио #4
Идентификатор                            : 5
Формат                                   : AC-3
Формат/Информация                        : Audio Coding 3
Расширение режима                        : CM (complete main)
Параметр Endianness формата              : Big
Идентификатор кодека                     : A_AC3
Продолжительность                        : 1 ч. 48 м.
Вид битрейта                             : Постоянный
Битрейт                                  : 448 Кбит/сек
Каналы                                   : 6 каналов
Расположение каналов                     : Front: L C R, Side: L R, LFE
Частота                                  : 48,0 КГц
Частота кадров                           : 31,250 кадров/сек (1536 spf)
Метод сжатия                             : С потерями
Размер потока                            : 347 Мбайт (12%)
Заголовок                                : AC3 (Одноголосый) Е. Гаевский
Язык                                     : Russian
Default                                  : Нет
Forced                                   : Нет
Аудио #5
Идентификатор                            : 6
Формат                                   : AC-3
Формат/Информация                        : Audio Coding 3
Расширение режима                        : CM (complete main)
Параметр Endianness формата              : Big
Идентификатор кодека                     : A_AC3
Продолжительность                        : 1 ч. 48 м.
Вид битрейта                             : Постоянный
Битрейт                                  : 448 Кбит/сек
Каналы                                   : 6 каналов
Расположение каналов                     : Front: L C R, Side: L R, LFE
Частота                                  : 48,0 КГц
Частота кадров                           : 31,250 кадров/сек (1536 spf)
Метод сжатия                             : С потерями
Размер потока                            : 347 Мбайт (12%)
Заголовок                                : AC3 (Оригинал)
Язык                                     : English
Default                                  : Нет
Forced                                   : Нет
Текст #1
Идентификатор                            : 7
Формат                                   : UTF-8
Идентификатор кодека                     : S_TEXT/UTF8
Идентификатор кодека/Информация          : UTF-8 Plain Text
Заголовок                                : Русские (Форсированные)
Язык                                     : Russian
Default                                  : Да
Forced                                   : Нет
Текст #2
Идентификатор                            : 8
Формат                                   : UTF-8
Идентификатор кодека                     : S_TEXT/UTF8
Идентификатор кодека/Информация          : UTF-8 Plain Text
Заголовок                                : Русские
Язык                                     : Russian
Default                                  : Нет
Forced                                   : Нет
Текст #3
Идентификатор                            : 9
Формат                                   : UTF-8
Идентификатор кодека                     : S_TEXT/UTF8
Идентификатор кодека/Информация          : UTF-8 Plain Text
Заголовок                                : Английские
Язык                                     : English
Default                                  : Нет
Forced                                   : Нет

Дополнительная информация

» Роста в Колоссе 2 м 28 см, тогда как в сыгравшем его Андре Трикоте всего 2 м 10 см. На съёмки ему приходилось надевать обувь с 20-сантиметровыми подошвами.
» Уэйд Уилсон был назван так в честь (или же в насмешку?) Слэйда Уилсона, как звали наёмника по кличке Дезстроук из комиксов издательства «DC Comics».
» Это первый фильм франшизы «Люди Икс», которому присвоен рейтинг R (лица, не достигшие 17 лет, допускаются на сеанс только в сопровождении родителей или законного представителя).
» Дэдпул был создан художником Робом Лайфелдом и писателем Фабианом Нициезой и впервые появился в комиксе «The New Mutants» #98 (февраль 1991).
» Дэдпул занял 182 место в списке журнала Wizard «200 лучших персонажей комиксов всех времён»; занял 45-е место в списке журнала Empire «50 лучших персонажей комиксов», а в мае 2011 года занял 31-е место в списке «Сто лучших персонажей комиксов всех времён» по версии IGN.
» У актёра Райана Рейнольдса и персонажа комиксов Дэдпула много поразительных сходств. У них обоих одинаковый рост — 188 см, цвет волос — каштановый и глаз — карий, они оба канадцы, у обоих аллитерирующие имена из 3-ех частей: Райан Родни Рейнольдс и Уэйд Уинстон Уилсон; Райан начал свою актёрскую карьеру в 1991 году, в этот же год Дэдпул в первый раз появился на страницах комиксов Marvel ("The New Mutants #98»). Кроме того, Райан является фанатом Дэдпула и не раз говорил, что сыграть Дэдпула — его мечта. Он пытается снять фильм о болтливом наёмнике с 2003 года, когда фильм разрабатывался киностудией New Line Cinema и режиссером был назначен Дэвид С. Гойер, но из-за недостатка прав на других персонажей проект был закрыт и права на Дэдпула были проданы студии 20th Century Fox. О попытке съёмки фильма есть отсылка в комиксе «Cable & Deadpool #2» за июнь 2004 года: Дэдпул сказал что он похож на помесь Райана Рейнольдса и шарпея. В 2008 году прошёл слух, что в сценарии фильма «Люди Икс: Начало. Росомаха» (2009) появляется Уэйд Уилсон — Райан в кратчайшие сроки связывается с 20th Century Fox чтобы сыграть роль, предполагающую только камео Уэйда в начале фильма. Сценарий «Росомахи» был жёстким с рейтингом R, но Хью Джекман настаивал на рейтинге PG-13, в следствие чего сценарий был сильно переработан сценаристами и роль Уэйда Уилсона в конце фильма была полностью изменена.
» В январе 2012 года был снят трёхминутный ролик, чтобы убедить руководство студии дать проекту «зелёный свет». 1 августа 2014 года ролик показали широкой общественности. Восторгу зрителей не было предела, и фильм был запущен в производство. Кадры из ролика были впоследствии вмонтированы в окончательную версию фильма.
» Ввиду изменений во временных потоках в фильме «Люди Икс: Дни минувшего будущего» (2014), эта версия происходящего с Уэйдом Уилсоном, известным как Дэдпул, отличается от описанной в фильме «Люди Икс: Начало. Росомаха» (2009).
» 1 апреля 2015 года Райан Рейнольдс написал в «Твиттере», что фильму будет присвоен рейтинг PG-13 (настоятельное предупреждение родителям, что некоторый материал в фильме может быть неподходящим для детей до 13 лет). Поклонники были возмущены, хотя в речи главного героя действительно часто проскальзывают ругательства, а сам он отнюдь не чурается применения насилия. В тот же день Рейнольдс признался, что пошутил, и что фильму будет присвоен рейтинг R (лица, не достигшие 17 лет, допускаются на сеанс только в сопровождении родителей или законного представителя).
» Это пятая роль Райана Рейнольдса в фильме, снятом по мотивам комиксов. Прежде он играл Ганнибала в фильме «Блэйд 3: Троица» (2004), Уэйда Уилсона в фильме «Люди Икс: Начало. Росомаха» (2009), Хэла Джордана в фильме «Зелёный фонарь» (2011) по комиксам издательства «DC Comics» и Ника Уокера в «Призрачном патруле» (2013) по комиксам «Dark Horse».
» В конце 1990-х Дэдпул стал героем своей собственной серии комиксов. Действовал он на пару с изобретателем и поставщиком оружия по имени Визл (или Проныра). Иногда этот персонаж «украшает» оружие и доспехи Дэдпула. Именно он изобрёл пояс для телепортации с эмблемой Дэдпула, а также сумку с неограниченным количеством оружия внутри.
» Райан Рейнольдс пообещал, что Дэдпул станет последним героем комиксов, которого он сыграл на экране, но добавил, что не будет отказываться от роли Дэдпула, если таковая будет ему предложена.
» Райан Рейнольдс рассматривает способность своего героя «разбивать четвёртую стену» как нечто, навеянное нынешними временами. Он однажды сказал: «По-моему, фильм о Дэдпуле выйдет в самый подходящий момент. Это обращение к поколению, которое уже видело фильмы, снятые по комиксам, и которое их любит. Это обращение к людям от человека в красном костюме, который сам является одним из них. Мне кажется, это всё равно, что смотреть, как какой-нибудь современный кумир говорит вещи, сказать которые тебе самому духу не хватает».
» На роль Ванессы рассматривались кандидатуры актрис Тейлор Шиллинг, Кристал Рид, Ребекки Риттерс, Сара Грин и Джессики Де Гау.
» Дэниэл Кадмор, сыгравший Колосса в прежних фильмах франшизы «Люди-Икс», отказался снова играть этого персонажа в фильме «Дэдпул». Колосса вместо него сыграл Андре Трикоте.
» В июне 2010 года предложение снять фильм «Дэдпул» было сделано режиссёру Роберту Родригесу, который, однако, предпочёл снять «Детей шпионов 4D» (2011).
» В костюме Дэдпула были специальные вставки, чтобы герой выглядел в нём помускулистее. Их пришлось вынуть. С мускулатурой у Райана Рейнольдса и так всё было в порядке, так что костюм со вставками был ему маловат. Более того, в костюме актёр выглядел неестественно огромным.
» Фильм монтировали в видеоредакторе «Adobe Premiere CC».
» Когда снимали эпизод схватки на свалке, Джину Карано больше волновали обитавшие там пауки, чем исполнение трюков на камеру.
» Съёмки фильма заняли 48 дней.
» Райан Рейнольдс принимал самое активное участие в написании сценария.
» Готовясь к роли Сверхзвуковой Подростковой Боеголовки, Брианна Хилдебранд несколько месяцев занималась тайским боксом.
» При работе над сценарием из него убрали Пушечное ядро и Гаррисона Кейна. Кейна убрали, когда стало ясно, каких затрат потребует создание компьютерного образа его кибернетических рук. Что же касается Пушечного ядра, его посчитали слишком «провинциальным».
» В трейлере Уэйд Уилсон произносит слова: «Только не делайте мне костюм зелёным или анимированным!» Имеется в виду роль супергероя из «вселенной комиксов DC» в фильме «Зелёный фонарь» (2011), в которой снялся Райан Рейнольдс. На съёмках того фильма костюм главного героя был результатом работы группы по спецэффектам, а не швейной мастерской.
» В комиксах Дэдпул страдал шизофренией и часто разговаривал сам с собой. В фильме всё несколько иначе: он разбивает четвёртую стену и напрямую обращается к зрителям, как делал это в компьютерных играх и мультфильмах.
» В эпизодической роли в фильме «Дэдпул» снялся Стэн Ли. Бывший директор и председатель совета директоров издательства «Marvel Comics» сыграл ди-джея в стриптиз-клубе.
» Роб Лайфелд, художник, создавший образ Дэдпула, снялся в роли клиента тату-салона. Дэдпул, проходя мимо, говорит: «К чертям собачьим Лайфилда».
Скриншоты:
Яндекс.Метрика
Рейтинг@Mail.ru