Дэдпул / Deadpool (2016) BDRemux [H.264/1080p]

 

Создавать темы 08-Май-2016 15:27

-Дэдпул / Deadpool (2016) BDRemux [H.264/1080p]«Стань свидетелем, как он кончит»- Производство: США, Канада / 20th Century Fox Film Corporation, Donners' Company, Kinberg Genre
Жанр: фантастика, боевик, комедия, приключения
Режиссер: Тим Миллер
Продюсер: Саймон Кинберг, Райан Рейнольдс, Лорен Шулер Доннер
Актеры: Райан Рейнольдс, Морена Баккарин, Эд Скрейн, ТиДжей Миллер, Джина Карано, Брианна Хилдебранд, Стефан Капичич, Лесли Уггэмс, Джед Риис, Каран Сони, Майкл Беняер, Стайл Дэйн, Кайл Кэсси, Тэйлор Хиксон, Айзи, Наика Туссэн, Рендал Ридер, Айзек С. Синглтон мл., Джастин Шиппелт, Донна Ямамото
Описание:
Уэйд Уилсон — наёмник. Будучи побочным продуктом программы вооружённых сил под названием «Оружие X», Уилсон приобрёл невероятную силу, проворство и способность к исцелению. Но страшной ценой: его клеточная структура постоянно меняется, а здравомыслие сомнительно. Всё, чего Уилсон хочет, — это держаться на плаву в социальной выгребной яме. Но течение в ней слишком быстрое.
[img]https://www.kinopoisk.ru/rating/462360.gif[/img]
Возраст: 18+ (зрителям, достигшим 18 лет. запрещено для детей)
Рейтинг MPAA: R (лицам до 17 лет обязательно присутствие взрослого)
Дата мировой премьеры: 21 января 2016
Дата российской премьеры: 11 февраля 2016, «Двадцатый Век Фокс СНГ»

Продолжительность: 01:48:42
Качество: BDRemux
Перевод: Дублированный (Лицензия BD CEE), Авторский (одноголосый, закадровый) (Гаевский), Любительский (одноголосый, закадровый) (Zamez)
Вид субтитров: Вшитые, отключаемые
Язык субтитров: Русский, Английский, Украинский
Видео: AVC/H.264, 1920x1080p, (16:9), 23880 kbps, 23,976 fps
Аудио: DTS, 6 ch, 768 kbps - Русский, Дубляж
Аудио: AC3, 6 ch, 448 kbps - Русский, Дубляж
Аудио: AC3, 6 ch, 448 kbps - Украинский
Аудио: AC3, 2 ch, 192 kbps - Русский, Zamez цензурный
Аудио: AC3, 2 ch, 192 kbps - Русский, Zamez ненорматив
Аудио: AC3, 6 ch, 640 kbps - Русский, Гаевский
Аудио: DTS-HD MA, 8 ch, 4822 kbps - Русский, Гаевский
Аудио: DTS-HD MA, 8 ch, 4892 kbps - Английский

MediaInfo:

Общее
Уникальный идентификатор                 : 170518350443250656607882699016129539530 (0x8048A3C4996BEA90B9F39FACA618EDCA)
Полное имя                               : C:\Deadpool.2016.BDRemux.1080p.mkv
Формат                                   : Matroska
Версия формата                           : Version 2
Размер файла                             : 27,2 Гбайт
Продолжительность                        : 1 ч. 48 м.
Режим общего битрейта                    : Переменный
Общий поток                              : 36,0 Мбит/сек
Дата кодирования                         : UTC 2016-05-08 05:49:31
Программа кодирования                    : mkvmerge v7.9.0 ('Birds') 64bit
Библиотека кодирования                   : libebml v1.3.1 + libmatroska v1.4.2
Обложка                                  : Yes
Attachments                              : cover.jpg
Видео
Идентификатор                            : 1
Формат                                   : AVC
Формат/Информация                        : Advanced Video Codec
Профиль формата                          : [url=mailto:[email protected]][email protected][/url]
Параметр CABAC формата                   : Да
Параметр ReFrames формата                : 4 кадра
Идентификатор кодека                     : V_MPEG4/ISO/AVC
Продолжительность                        : 1 ч. 48 м.
Вид битрейта                             : Переменный
Максимальный битрейт                     : 33,0 Мбит/сек
Ширина                                   : 1920 пикселей
Высота                                   : 1080 пикселей
Соотношение сторон                       : 16:9
Режим частоты кадров                     : Постоянный
Частота кадров                           : 23,976 (24000/1001) кадра/сек
Цветовое пространство                    : YUV
Субдискретизация насыщенности            : 4:2:0
Битовая глубина                          : 8 бит
Тип развёртки                            : Прогрессивная
Язык                                     : English
Default                                  : Да
Forced                                   : Нет
Аудио #1
Идентификатор                            : 2
Формат                                   : DTS
Формат/Информация                        : Digital Theater Systems
Режим                                    : 16
Параметр Endianness формата              : Big
Идентификатор кодека                     : A_DTS
Продолжительность                        : 1 ч. 48 м.
Вид битрейта                             : Постоянный
Битрейт                                  : 768 Кбит/сек
Каналы                                   : 6 каналов
Расположение каналов                     : Front: L C R, Side: L R, LFE
Частота                                  : 48,0 КГц
Частота кадров                           : 93,750 кадра/сек (512 spf)
Битовая глубина                          : 24 бит
Метод сжатия                             : С потерями
Размер потока                            : 595 Мбайт (2%)
Заголовок                                : DUB BD CEE
Язык                                     : Russian
Default                                  : Да
Forced                                   : Нет
Аудио #2
Идентификатор                            : 3
Формат                                   : AC-3
Формат/Информация                        : Audio Coding 3
Расширение режима                        : CM (complete main)
Параметр Endianness формата              : Big
Идентификатор кодека                     : A_AC3
Продолжительность                        : 1 ч. 48 м.
Вид битрейта                             : Постоянный
Битрейт                                  : 448 Кбит/сек
Каналы                                   : 6 каналов
Расположение каналов                     : Front: L C R, Side: L R, LFE
Частота                                  : 48,0 КГц
Частота кадров                           : 31,250 кадров/сек (1536 spf)
Метод сжатия                             : С потерями
Размер потока                            : 347 Мбайт (1%)
Заголовок                                : DUB BD CEE
Язык                                     : Russian
Default                                  : Нет
Forced                                   : Нет
Аудио #3
Идентификатор                            : 4
Формат                                   : AC-3
Формат/Информация                        : Audio Coding 3
Расширение режима                        : CM (complete main)
Параметр Endianness формата              : Big
Идентификатор кодека                     : A_AC3
Продолжительность                        : 1 ч. 48 м.
Вид битрейта                             : Постоянный
Битрейт                                  : 448 Кбит/сек
Каналы                                   : 6 каналов
Расположение каналов                     : Front: L C R, Side: L R, LFE
Частота                                  : 48,0 КГц
Частота кадров                           : 31,250 кадров/сек (1536 spf)
Метод сжатия                             : С потерями
Размер потока                            : 347 Мбайт (1%)
Заголовок                                : DUB BD CEE
Язык                                     : Ukrainian
Default                                  : Нет
Forced                                   : Нет
Аудио #4
Идентификатор                            : 5
Формат                                   : AC-3
Формат/Информация                        : Audio Coding 3
Расширение режима                        : CM (complete main)
Параметр Endianness формата              : Big
Идентификатор кодека                     : A_AC3
Продолжительность                        : 1 ч. 48 м.
Вид битрейта                             : Постоянный
Битрейт                                  : 192 Кбит/сек
Каналы                                   : 2 канала
Расположение каналов                     : Front: L R
Частота                                  : 48,0 КГц
Частота кадров                           : 31,250 кадров/сек (1536 spf)
Метод сжатия                             : С потерями
Размер потока                            : 149 Мбайт (1%)
Заголовок                                : Zamez ценз
Язык                                     : Russian
Default                                  : Нет
Forced                                   : Нет
Аудио #5
Идентификатор                            : 6
Формат                                   : AC-3
Формат/Информация                        : Audio Coding 3
Расширение режима                        : CM (complete main)
Параметр Endianness формата              : Big
Идентификатор кодека                     : A_AC3
Продолжительность                        : 1 ч. 48 м.
Вид битрейта                             : Постоянный
Битрейт                                  : 192 Кбит/сек
Каналы                                   : 2 канала
Расположение каналов                     : Front: L R
Частота                                  : 48,0 КГц
Частота кадров                           : 31,250 кадров/сек (1536 spf)
Метод сжатия                             : С потерями
Размер потока                            : 149 Мбайт (1%)
Заголовок                                : Zamez ненорматив
Язык                                     : Russian
Default                                  : Нет
Forced                                   : Нет
Аудио #6
Идентификатор                            : 7
Формат                                   : DTS
Формат/Информация                        : Digital Theater Systems
Профиль формата                          : MA / ES Matrix / Core
Режим                                    : 16
Параметр Endianness формата              : Big
Идентификатор кодека                     : A_DTS
Продолжительность                        : 1 ч. 48 м.
Вид битрейта                             : Переменный / Постоянный / Постоянный
Битрейт                                  : Неизвестно / 1509 Кбит/сек / 1509 Кбит/сек
Каналы                                   : 8 каналов / 7 каналов / 6 каналов
Расположение каналов                     : Front: L C R, Side: L R, Back: L R, LFE / Front: L C R, Side: L R, Back: C, LFE / Front: L C R, Side: L R, LFE
Частота                                  : 48,0 КГц
Частота кадров                           : 93,750 кадра/сек (512 spf)
Битовая глубина                          : 24 бит
Метод сжатия                             : Без потерь / Lossy / Lossy
Заголовок                                : Е. Гаевский
Язык                                     : Russian
Default                                  : Нет
Forced                                   : Нет
Аудио #7
Идентификатор                            : 8
Формат                                   : AC-3
Формат/Информация                        : Audio Coding 3
Расширение режима                        : CM (complete main)
Параметр Endianness формата              : Big
Идентификатор кодека                     : A_AC3
Продолжительность                        : 1 ч. 48 м.
Вид битрейта                             : Постоянный
Битрейт                                  : 640 Кбит/сек
Каналы                                   : 6 каналов
Расположение каналов                     : Front: L C R, Side: L R, LFE
Частота                                  : 48,0 КГц
Частота кадров                           : 31,250 кадров/сек (1536 spf)
Метод сжатия                             : С потерями
Размер потока                            : 496 Мбайт (2%)
Заголовок                                : Гаевский
Язык                                     : Russian
Default                                  : Нет
Forced                                   : Нет
Аудио #8
Идентификатор                            : 9
Формат                                   : DTS
Формат/Информация                        : Digital Theater Systems
Профиль формата                          : MA / ES Matrix / Core
Режим                                    : 16
Параметр Endianness формата              : Big
Идентификатор кодека                     : A_DTS
Продолжительность                        : 1 ч. 48 м.
Вид битрейта                             : Переменный / Постоянный / Постоянный
Битрейт                                  : Неизвестно / 1509 Кбит/сек / 1509 Кбит/сек
Каналы                                   : 8 каналов / 7 каналов / 6 каналов
Расположение каналов                     : Front: L C R, Side: L R, Back: L R, LFE / Front: L C R, Side: L R, Back: C, LFE / Front: L C R, Side: L R, LFE
Частота                                  : 48,0 КГц
Частота кадров                           : 93,750 кадра/сек (512 spf)
Битовая глубина                          : 24 бит
Метод сжатия                             : Без потерь / Lossy / Lossy
Язык                                     : English
Default                                  : Нет
Forced                                   : Нет
Текст #1
Идентификатор                            : 10
Формат                                   : UTF-8
Идентификатор кодека                     : S_TEXT/UTF8
Идентификатор кодека/Информация          : UTF-8 Plain Text
Заголовок                                : Forced
Язык                                     : Russian
Default                                  : Да
Forced                                   : Нет
Текст #2
Идентификатор                            : 11
Формат                                   : UTF-8
Идентификатор кодека                     : S_TEXT/UTF8
Идентификатор кодека/Информация          : UTF-8 Plain Text
Язык                                     : Russian
Default                                  : Нет
Forced                                   : Нет
Текст #3
Идентификатор                            : 12
Формат                                   : UTF-8
Идентификатор кодека                     : S_TEXT/UTF8
Идентификатор кодека/Информация          : UTF-8 Plain Text
Заголовок                                : Forced
Язык                                     : Ukrainian
Default                                  : Нет
Forced                                   : Нет
Текст #4
Идентификатор                            : 13
Формат                                   : UTF-8
Идентификатор кодека                     : S_TEXT/UTF8
Идентификатор кодека/Информация          : UTF-8 Plain Text
Язык                                     : Ukrainian
Default                                  : Нет
Forced                                   : Нет
Текст #5
Идентификатор                            : 14
Формат                                   : UTF-8
Идентификатор кодека                     : S_TEXT/UTF8
Идентификатор кодека/Информация          : UTF-8 Plain Text
Язык                                     : English
Default                                  : Нет
Forced                                   : Нет
Меню
00:00:00.000                             : en:1
00:03:02.724                             : en:2
00:05:51.017                             : en:3
00:09:28.818                             : en:4
00:13:17.087                             : en:5
00:16:46.713                             : en:6
00:20:10.541                             : en:7
00:22:04.404                             : en:8
00:27:07.623                             : en:9
00:31:56.953                             : en:10
00:36:49.704                             : en:11
00:41:04.166                             : en:12
00:44:43.760                             : en:13
00:46:54.599                             : en:14
00:50:08.960                             : en:15
00:53:16.022                             : en:16
00:55:31.032                             : en:17
00:59:05.746                             : en:18
01:03:03.233                             : en:19
01:07:04.432                             : en:20
01:09:13.561                             : en:21
01:12:27.713                             : en:22
01:16:44.386                             : en:23
01:20:41.706                             : en:24
01:25:51.390                             : en:25
01:31:01.783                             : en:26
01:34:44.964                             : en:27
01:39:50.728                             : en:28
Скриншоты:
Яндекс.Метрика
Рейтинг@Mail.ru