Апперкот для Гитлера (Серии 1—4 из 4) (Денис Нейманд) [2016, военный, история, драма, SATRip]

 

Создавать темы 08-Май-2016 08:08

--Апперкот для Гитлера--
  • Год выпуска: 2016
  • Страна: Россия / «Талан»
  • Жанр: военный, история, драма
  • Продолжительность: 4 х ~00:43:00
  • Перевод: Не требуется-
  • Режиссёр: Денис Нейманд-
  • В ролях: Антон Момот, Андрей Лёвин, Полина Толстун, Сергей Барковский, Елена Симонова, Анатолий Дзиваев, Алексей Эйбоженко, Артур Харитоненко, Юрий Чулков...-
  • Основанная на реальных событиях история рассказывает об операции советской разведки по физическому устранению фюрера нацисткой Германии Адольфа Гитлера. Под видом дезертира-перебежчика на задание в Германию направляют выдающегося боксера и разведчика Игоря Миклашевского. Пережив дознания и пытки, Игорь становится личным «гладиатором» штандартенфюрера и азартного игрока Вальтера Шлосса.
    Нежные чувства к связной — француженке русского происхождения Анастасии Шуваловой — помогают Игорю играть роль «своего» в тылу врага. Побеждая одного соперника за другим, он приближается к высшему обществу Третьего Рейха, а вместе с тем и к своей главной цели — Адольфу Гитлеру.
    -
  • Премьера в России: 8 мая 2016--
  • --
  • Качество видео: SATRip
  • Формат видео: AVI
  • Видео кодек: XviD
  • Аудио кодек: MP3
  • Видео: 720x448 (1.61:1), 25.000 fps, XviD MPEG-4, ~1902 kbps avg, 0.236 bit/pixel
  • Аудио: 48.0 kHz, MPEG Audio Layer 3, 2 ch, ~128.00 kbps avg
  • Субтитры: нет
--

Media Info

General
Complete name : W:\O.S.A.\Торренты\Завершенные торренты\Apperkot.dlja.Gitlera.2016.SATRip\Apperkot.dlja.Gitlera.1.avi
Format : AVI
Format/Info : Audio Video Interleave
File size : 652 MiB
Duration : 44mn 39s
Overall bit rate : 2 040 Kbps
Writing application : VirtualDubModRus 1.5.10.2 (build 2542/release)
Writing library : VirtualDubMod build 2542/release
Video
ID : 0
Format : MPEG-4 Visual
Format profile : Advanced [email protected]
Format settings, BVOP : 2
Format settings, QPel : No
Format settings, GMC : No warppoints
Format settings, Matrix : Default (H.263)
Codec ID : XVID
Codec ID/Hint : XviD
Duration : 44mn 39s
Bit rate : 1 902 Kbps
Width : 720 pixels
Height : 448 pixels
Display aspect ratio : 1.607
Frame rate : 25.000 fps
Color space : YUV
Chroma subsampling : 4:2:0
Bit depth : 8 bits
Scan type : Progressive
Compression mode : Lossy
Bits/(Pixel*Frame) : 0.236
Stream size : 608 MiB (93%)
Writing library : XviD 1.2.1 (UTC 2008-12-04)
Audio
ID : 1
Format : MPEG Audio
Format version : Version 1
Format profile : Layer 3
Codec ID : 55
Codec ID/Hint : MP3
Duration : 44mn 39s
Bit rate mode : Constant
Bit rate : 128 Kbps
Channel(s) : 2 channels
Sampling rate : 48.0 KHz
Compression mode : Lossy
Stream size : 40.9 MiB (6%)
Alignment : Aligned on interleaves
Interleave, duration : 40 ms (1.00 video frame)
Interleave, preload duration : 504 ms
Writing library : LAME3.99r
Encoding settings : -m s -V 4 -q 2 -lowpass 17 -b 128
--- --
Яндекс.Метрика
Рейтинг@Mail.ru