Надо выдать маму замуж / Il faut marier maman (2013) DVB [FR / RU Sub]

 

Создавать темы 29-Дек-2013 23:18

-Надо выдать маму замуж / Il faut marier maman (2013) DVB- Год выпуска: 2013
Жанр: Комедия
Страна: Франция
Описание фильма:
50-летняя стоматолог Дани впадает в депрессию после того, как ее муж уходит к женщине на 15 лет моложе. Чтобы помочь матери в это трудное время к ней с учебы в Швейцарии приезжает дочь Аликс. Однако очень скоро в жизни Дани появляется другой мужчина – молодой художник Эрик без гроша в кармане. Перед Дани встает дилемма: есть ли у нее будущее с этим молодым мужчиной, и как к такому положению вещей отнесется ее пуританских взглядов дочь?
Режиссер: Жером Наварро
Актеры: Мишель Бернье, Морган Сабот, Франсин Берже, Jean-Charles Chagachbanian, Надя Фоссье, Эдит Ле Мерди, Даниэль Руссо, Jacques Serres, Шарль Темплон
Продолжительность: 01:31:12
Качество видео: DVB
Перевод: Отсутствует
Язык: Французский
Язык субтитров: Русский
Вид субтитров: Вшитые

Видеокодек: MPEG-2
Формат видео: MPEG-PS
Битрейт видео: ~3836 kbps
Размер кадра: [email protected] (16:9)
Аудиокодек: MP2, 2ch
Битрейт аудио: 192.00 kbps
Сэмпл: Ссылка

MI

Полное имя : Il_faut_marier_maman(2013)DVB.mpg
Формат : MPEG-PS
Размер файла : 2,62 Гбайт
Продолжительность : 1 ч. 31 м.
Режим общего битрейта : Переменный
Общий поток : 4110 Кбит/сек
Видео
Идентификатор : 224 (0xE0)
Формат : MPEG Video
Версия формата : Version 2
Профиль формата : [email protected]
Параметр BVOP формата : Да
Параметр матрицы формата : Выборочная
Параметр GOP формата : M=3, N=24
Продолжительность : 1 ч. 31 м.
Вид битрейта : Переменный
Битрейт : 3836 Кбит/сек
Ширина : 720 пикселей
Высота : 576 пикселей
Соотношение сторон : 16:9
Частота кадров : 25,000 кадров/сек
Стандарт вещания : PAL
Цветовое пространство : YUV
Субдискретизация насыщенности : 4:2:0
Битовая глубина : 8 бит
Тип развёртки : Прогрессивная
Порядок развёртки : Верхнее поле первое
Метод сжатия : С потерями
Бит/(Пиксели*Кадры) : 0.370
Размер потока : 2,44 Гбайт (93%)
Аудио
Идентификатор : 192 (0xC0)
Формат : MPEG Audio
Версия формата : Version 1
Профиль формата : Layer 2
Продолжительность : 1 ч. 31 м.
Вид битрейта : Постоянный
Битрейт : 192 Кбит/сек
Каналы : 2 канала
Частота : 48,0 КГц
Метод сжатия : С потерями
Размер потока : 125 Мбайт (5%)
Скриншоты:Время раздачи: 16:00-02:00
Яндекс.Метрика
Рейтинг@Mail.ru